<?xml version="1.0" standalone="no"?>
<!DOCTYPE svg PUBLIC "-//W3C//DTD SVG 1.1//EN" "http://www.w3.org/Graphics/SVG/1.1/DTD/svg11.dtd" >
<svg xmlns="http://www.w3.org/2000/svg" xmlns:xlink="http://www.w3.org/1999/xlink" version="1.1">
<metadata></metadata>
<defs>
<font id="tondoregular" horiz-adv-x="1249" >
<font-face units-per-em="2048" ascent="1638" descent="-410" />
<missing-glyph horiz-adv-x="501" />
<glyph unicode="&#xfb01;" horiz-adv-x="1114" d="M31 954q0 35 14 54.5t55 19.5h95v102q0 63 21.5 122t65.5 104t109.5 72.5t153.5 27.5q133 0 231 -41q41 -16 67.5 -37.5t26.5 -50.5q0 -35 -19.5 -56.5t-47.5 -21.5q-20 0 -39 7.5t-39 15.5q-37 14 -80 28.5t-98 14.5q-88 0 -133 -53.5t-45 -143.5v-90h520q82 0 82 -90 v-872q0 -47 -23.5 -64.5t-64.5 -17.5t-63.5 17t-22.5 65v815h-428v-815q0 -47 -23.5 -64.5t-64.5 -17.5t-63.5 17t-22.5 65v815h-95q-41 0 -55 19.5t-14 53.5z" />
<glyph unicode="&#xfb02;" horiz-adv-x="1140" d="M31 954q0 35 14 54.5t55 19.5h95v143q0 127 78.5 206t230.5 79q41 0 79 -7t66.5 -20.5t46 -33t17.5 -43.5q0 -35 -19.5 -56.5t-48.5 -21.5q-18 0 -31.5 6t-29 14.5t-33.5 14.5t-45 6q-59 0 -98 -33t-39 -123v-131h442v326q0 47 22.5 64.5t63.5 17.5t64.5 -17.5 t23.5 -64.5v-1288q0 -47 -23.5 -64.5t-64.5 -17.5t-63.5 17t-22.5 65v815h-442v-815q0 -47 -23.5 -64.5t-64.5 -17.5t-63.5 17t-22.5 65v815h-95q-41 0 -55 19.5t-14 53.5z" />
<glyph unicode="&#xfb03;" horiz-adv-x="1753" d="M31 954q0 35 14 54.5t55 19.5h95v143q0 127 78.5 206t230.5 79q41 0 79 -7t66.5 -20.5t46 -33t17.5 -43.5q0 -35 -19.5 -56.5t-48.5 -21.5q-18 0 -31.5 6t-29 14.5t-34 14.5t-44.5 6q-59 0 -98 -33t-39 -123v-131h465v102q0 63 21.5 122t65.5 104t109.5 72.5t153.5 27.5 q133 0 231 -41q41 -16 67.5 -37.5t26.5 -50.5q0 -35 -19.5 -56.5t-47.5 -21.5q-20 0 -39 7.5t-39 15.5q-37 14 -80 28.5t-98 14.5q-88 0 -133 -53.5t-45 -143.5v-90h520q82 0 82 -90v-872q0 -47 -23.5 -64.5t-64.5 -17.5t-63.5 17t-22.5 65v815h-428v-815q0 -47 -23.5 -64.5 t-64.5 -17.5t-63.5 17t-22.5 65v815h-465v-815q0 -47 -23.5 -64.5t-64.5 -17.5t-63.5 17t-22.5 65v815h-95q-41 0 -55 19.5t-14 53.5z" />
<glyph unicode="&#xfb04;" horiz-adv-x="1777" d="M31 954q0 35 14 54.5t55 19.5h95v143q0 127 78.5 206t230.5 79q41 0 79 -7t66.5 -20.5t46 -33t17.5 -43.5q0 -35 -19.5 -56.5t-48.5 -21.5q-18 0 -31.5 6t-29 14.5t-34 14.5t-44.5 6q-59 0 -98 -33t-39 -123v-131h462v143q0 127 79 206t231 79q41 0 78.5 -7t66.5 -20.5 t46.5 -33t17.5 -43.5q0 -35 -19.5 -56.5t-48.5 -21.5q-18 0 -31.5 6t-29 14.5t-33.5 14.5t-45 6q-59 0 -98 -33t-39 -123v-131h442v326q0 47 22.5 64.5t63.5 17.5t64.5 -17.5t23.5 -64.5v-1288q0 -47 -23.5 -64.5t-64.5 -17.5t-63.5 17t-22.5 65v815h-442v-815 q0 -47 -24 -64.5t-64 -17.5q-41 0 -64 17t-23 65v815h-462v-815q0 -47 -23.5 -64.5t-64.5 -17.5t-63.5 17t-22.5 65v815h-95q-41 0 -55 19.5t-14 53.5z" />
<glyph unicode="&#xd;" horiz-adv-x="501" />
<glyph horiz-adv-x="0" />
<glyph horiz-adv-x="0" />
<glyph unicode=" "  horiz-adv-x="501" />
<glyph unicode="&#x09;" horiz-adv-x="501" />
<glyph unicode="&#xa0;" horiz-adv-x="501" />
<glyph unicode="!" horiz-adv-x="557" d="M164 96q0 47 33.5 81t78.5 34q47 0 81 -34t34 -81q0 -45 -33.5 -78.5t-81.5 -33.5q-45 0 -78.5 33.5t-33.5 78.5zM184 1094v258q0 47 23.5 65.5t71.5 18.5q47 0 70.5 -18.5t23.5 -65.5v-258l-21 -611q-2 -41 -20.5 -55t-55.5 -14t-53 14t-18 55z" />
<glyph unicode="&#x22;" horiz-adv-x="753" d="M109 1272v80q0 47 23.5 65.5t70.5 18.5t70.5 -18.5t23.5 -65.5v-80l-18 -260q-4 -41 -22.5 -54.5t-55.5 -13.5q-39 0 -54.5 13.5t-19.5 54.5zM457 1272v80q0 47 23.5 65.5t70.5 18.5t70.5 -18.5t23.5 -65.5v-80l-18 -260q-4 -41 -22.5 -54.5t-55.5 -13.5 q-39 0 -54.5 13.5t-19.5 54.5z" />
<glyph unicode="#" horiz-adv-x="1314" d="M76 494q0 35 14 53t55 18h197l39 285h-236q-41 0 -55 19.5t-14 54.5t14 53t55 18h256l50 346q6 43 22 58.5t57 15.5q39 0 60.5 -14.5t15.5 -59.5l-49 -346h281l49 346q6 43 22.5 58.5t57.5 15.5q39 0 60.5 -14.5t14.5 -59.5l-49 -346h178q41 0 55.5 -18.5t14.5 -52.5 q0 -35 -14.5 -54.5t-55.5 -19.5h-198l-39 -285h237q41 0 55.5 -18.5t14.5 -52.5q0 -35 -14.5 -54.5t-55.5 -19.5h-258l-49 -346q-6 -43 -22.5 -58.5t-57.5 -15.5q-39 0 -60.5 14.5t-14.5 59.5l49 346h-281l-49 -346q-6 -43 -22.5 -58.5t-57.5 -15.5q-39 0 -60.5 14.5 t-15.5 59.5l50 346h-177q-41 0 -55 19.5t-14 54.5zM498 565h280l39 285h-280z" />
<glyph unicode="$" d="M98 236q0 31 28 55t60 24q16 0 33 -8t29 -18q14 -16 37.5 -40t60.5 -46.5t88 -43t123 -28.5v504l-22 6q-100 25 -179.5 58.5t-133.5 79.5t-82.5 106.5t-28.5 138.5q0 74 27.5 140.5t82.5 116.5t139 81t197 37v117q0 41 18.5 55t53.5 14t54 -14.5t19 -54.5v-121 q86 -10 152 -33t114 -48.5t79.5 -52t48.5 -44.5q16 -18 22 -36t6 -32q0 -29 -27.5 -54.5t-60.5 -25.5t-69 43l-33 31q-18 20 -50 40.5t-77 39t-105 28.5v-483l97 -25q176 -45 264 -133t88 -237q0 -90 -33 -160t-93 -119t-142 -76.5t-181 -31.5v-105q0 -41 -19 -55t-54 -14 t-53.5 14t-18.5 55v107q-92 8 -162.5 28.5t-122 46t-85 51t-50.5 44.5q-29 29 -34 45t-5 33zM281 1032q0 -33 9 -63.5t35.5 -58t76 -52t128.5 -45.5l27 -8v452q-86 -6 -139 -29.5t-84 -56t-42 -69.5t-11 -70zM702 125q129 10 202 66t73 165q0 92 -66.5 150.5t-208.5 93.5 v-475z" />
<glyph unicode="%" horiz-adv-x="1943" d="M90 967q0 219 92 336.5t252 117.5t252 -117.5t92 -336.5t-92 -337t-252 -118t-252 118t-92 337zM246 967q0 -150 48 -233t140 -83q90 0 139.5 83t49.5 233q0 147 -49.5 232t-139.5 85q-92 0 -140 -85t-48 -232zM569 25q0 10 2 20t11 27l643 1302q20 43 59 43 q37 0 62.5 -19.5t25.5 -41.5q0 -10 -2 -20.5t-10 -26.5l-641 -1297q-10 -23 -24.5 -35t-43.5 -12q-35 0 -58.5 18.5t-23.5 41.5zM1165 420q0 219 92.5 336.5t251.5 117.5q160 0 252 -117.5t92 -336.5t-92 -337t-252 -118t-252 118t-92 337zM1321 420q0 -150 48 -233t140 -83 q90 0 139.5 83t49.5 233q0 147 -49.5 232t-139.5 85q-92 0 -140 -85t-48 -232z" />
<glyph unicode="&#x26;" horiz-adv-x="1388" d="M94 383q0 78 23.5 141.5t65.5 115.5t100.5 95t128.5 80q-66 86 -95.5 155.5t-29.5 145.5q0 74 25.5 133.5t71.5 101.5t108.5 63.5t138.5 21.5q94 0 158.5 -26t104.5 -66.5t58.5 -91t18.5 -99.5q0 -74 -25.5 -128t-70 -98t-103.5 -80t-127 -69q78 -92 158 -180t188 -188 q14 23 26.5 50t22 55t16.5 51.5t11 35.5q12 55 70 55q27 0 55.5 -14t28.5 -45q0 -14 -3.5 -27.5t-7.5 -29.5q-6 -29 -33.5 -98.5t-70.5 -141.5q45 -39 94 -82t123 -102q23 -18 29 -30.5t6 -27.5q0 -37 -29 -64.5t-61 -27.5q-16 0 -30.5 8.5t-23.5 14.5q-33 27 -59.5 48 t-51 41.5t-48 42t-51.5 46.5q-86 -92 -198 -146.5t-249 -54.5q-115 0 -201 33t-144 89t-88 132t-30 162zM270 385q0 -63 22.5 -113.5t61.5 -84t93.5 -51t117.5 -17.5q104 0 187.5 45t136.5 110q-94 92 -196.5 203.5t-194.5 222.5q-100 -59 -164 -130.5t-64 -184.5zM451 1126 q0 -59 32.5 -119.5t77.5 -119.5q53 27 99.5 54.5t81 58t55 66.5t20.5 79q0 27 -9 55.5t-30.5 53t-56.5 40t-86 15.5q-92 0 -138 -52.5t-46 -130.5z" />
<glyph unicode="'" horiz-adv-x="405" d="M109 1272v80q0 47 23.5 65.5t70.5 18.5t70.5 -18.5t23.5 -65.5v-80l-18 -260q-4 -41 -22.5 -54.5t-55.5 -13.5q-39 0 -54.5 13.5t-19.5 54.5z" />
<glyph unicode="(" horiz-adv-x="774" d="M131 637q0 158 38 297t104.5 255t153.5 207t185 156q18 10 34 17.5t32 7.5q29 0 49.5 -22.5t20.5 -51.5q0 -10 -5.5 -22.5t-25.5 -28.5q-115 -96 -191.5 -196.5t-123 -203t-67 -207t-20.5 -208.5t20.5 -207.5t67 -206t123 -203t191.5 -194.5q20 -16 25.5 -28.5t5.5 -22.5 q0 -29 -20.5 -51.5t-49.5 -22.5q-16 0 -31.5 7t-34.5 18q-98 63 -185 154t-153.5 207t-104.5 254t-38 296z" />
<glyph unicode=")" horiz-adv-x="774" d="M27 -225q0 10 5 22.5t25 28.5q113 94 191 194.5t124 203t66.5 206t20.5 207.5t-20.5 208.5t-66.5 207t-124 203t-191 196.5q-20 16 -25 28.5t-5 22.5q0 29 20.5 51.5t48.5 22.5q16 0 31.5 -7t34.5 -18q98 -66 185 -156.5t153.5 -206.5t104.5 -255t38 -297t-38 -296 t-104.5 -254t-153.5 -207t-185 -154q-18 -10 -33.5 -17.5t-32.5 -7.5q-29 0 -49 22.5t-20 51.5z" />
<glyph unicode="*" horiz-adv-x="794" d="M45 1171q0 14 10 39q18 45 47 45q14 0 31 -8l201 -71v219q0 35 16.5 46t46.5 11q33 0 48.5 -11t15.5 -46v-219l201 71q16 8 30 8q29 0 47 -45q10 -25 11 -39q0 -29 -41 -41l-215 -71l139 -180q16 -23 16 -35q0 -14 -11 -24.5t-28 -22.5q-23 -16 -41 -17q-25 0 -45 31 l-127 176l-127 -176q-23 -31 -45 -31q-18 0 -41 17q-16 12 -27.5 22t-11.5 25q0 12 17 35l139 180l-215 71q-41 12 -41 41z" />
<glyph unicode="+" d="M160 696q0 37 16.5 57.5t56.5 20.5h310v330q0 45 20.5 61.5t59.5 16.5q41 0 61.5 -16.5t20.5 -61.5v-330h311q41 0 57.5 -20.5t16.5 -57.5t-16.5 -58.5t-57.5 -21.5h-311v-327q0 -45 -20.5 -61.5t-61.5 -16.5q-39 0 -59.5 16.5t-20.5 61.5v327h-310q-41 0 -57 21.5 t-16 58.5z" />
<glyph unicode="," horiz-adv-x="419" d="M98 111q0 57 33 88.5t86 31.5t89 -36.5t36 -110.5q0 -61 -17.5 -113.5t-40 -92.5t-43 -65.5t-26.5 -31.5q-14 -16 -25.5 -19.5t-19.5 -3.5q-27 0 -46.5 14.5t-19.5 37.5q0 10 3.5 21t19.5 32q23 29 45.5 63.5t26.5 77.5q-45 4 -73 34t-28 73z" />
<glyph unicode="-" horiz-adv-x="581" d="M49 528q0 41 17.5 62.5t60.5 21.5h328q43 0 60 -21.5t17 -62.5t-17 -64.5t-60 -23.5h-328q-43 0 -60.5 23.5t-17.5 64.5z" />
<glyph unicode="." horiz-adv-x="436" d="M94 106q0 49 37 87t86 38t87 -37.5t38 -87.5q0 -49 -38 -85.5t-87 -36.5t-86 36.5t-37 85.5z" />
<glyph unicode="/" horiz-adv-x="929" d="M29 51q0 27 22 66l694 1272q12 23 26.5 35t39.5 12q41 0 65.5 -19.5t24.5 -48.5q0 -27 -22 -65l-695 -1272q-12 -23 -26.5 -35t-38.5 -12q-41 0 -65.5 19.5t-24.5 47.5z" />
<glyph unicode="0" d="M96 705q0 346 139.5 531t389.5 185q252 0 390 -185t138 -531q0 -172 -36 -308.5t-103.5 -229.5t-165.5 -142.5t-223 -49.5t-223.5 49.5t-166 142.5t-103.5 229t-36 309zM274 705q0 -129 22.5 -236t67 -182.5t110 -116.5t151.5 -41t151.5 41t109.5 116.5t66.5 182.5 t22.5 236q0 127 -22.5 231t-66.5 178t-109.5 115t-151.5 41t-151.5 -41t-110 -115t-67 -178.5t-22.5 -230.5z" />
<glyph unicode="1" d="M246 74q0 35 14 54t55 19h265v1033q-57 -43 -111.5 -75t-77.5 -42t-36 -14.5t-29 -4.5q-35 0 -52.5 31t-17.5 60q0 20 11.5 34.5t43.5 30.5q25 12 56.5 29.5t65.5 39t66.5 45t59.5 48.5q23 18 41 28.5t57 10.5h9q41 0 64.5 -17.5t23.5 -64.5v-1172h264q41 0 55 -19 t14 -54t-14 -54.5t-55 -19.5h-703q-41 0 -55 19.5t-14 54.5z" />
<glyph unicode="2" d="M162 90q0 35 12 56.5t41 43.5q33 27 88 75t114.5 102.5t114 105.5t84.5 84q57 59 107.5 113.5t87.5 109t58.5 109.5t21.5 119q0 135 -74 201.5t-196 66.5q-74 0 -125.5 -24.5t-86 -58.5t-54 -70.5t-31.5 -61.5q-16 -33 -33 -41t-39 -8q-31 0 -59.5 18.5t-28.5 52.5 q0 16 4 37t18 47q14 27 45 70t84.5 84t132 70.5t187.5 29.5q98 0 177 -26.5t136.5 -77.5t88 -127t30.5 -176q0 -70 -22.5 -136.5t-62.5 -131t-93 -128t-117 -126.5q-43 -43 -91 -90.5t-97 -92.5t-96.5 -87t-88.5 -75h629q41 0 55.5 -19t14.5 -54t-14.5 -54.5t-55.5 -19.5 h-772q-53 0 -73.5 22.5t-20.5 67.5z" />
<glyph unicode="3" d="M100 289q0 37 32 59.5t63 22.5q23 0 39 -11.5t34 -42.5q14 -25 39 -58.5t62 -63t91 -50t130 -20.5q154 0 235.5 73.5t81.5 209.5q0 250 -332 249h-20q-41 0 -55.5 19.5t-14.5 54.5t14.5 54.5t55.5 19.5h23q152 0 221 70.5t69 175.5q0 111 -67.5 167t-190.5 56 q-70 0 -120 -19.5t-86.5 -49t-62.5 -62.5t-44 -58q-16 -23 -30.5 -32t-33.5 -9q-39 0 -64.5 21.5t-25.5 52.5q0 27 11.5 47.5t21.5 36.5q14 18 46 55t85 73t129 63.5t178 27.5q209 0 319.5 -94t110.5 -262q0 -106 -52 -191.5t-148 -128.5q100 -39 171.5 -121.5t71.5 -222.5 q0 -104 -37.5 -184t-104 -133t-156 -81t-191.5 -28q-117 0 -198 26t-134 60.5t-85 72.5t-46 61t-24.5 44t-10.5 50z" />
<glyph unicode="4" d="M115 401q0 27 10 48.5t31 50.5l587 846q20 29 46 42t71 13q41 0 64.5 -17.5t23.5 -64.5v-866h111q41 0 55 -16.5t14 -51.5t-14 -55.5t-55 -20.5h-111v-241q0 -47 -22.5 -64.5t-63.5 -17.5t-59.5 17t-18.5 65v241h-571q-53 0 -75.5 25.5t-22.5 66.5zM293 453h491v710z" />
<glyph unicode="5" d="M152 279q0 37 30.5 56t61.5 19q23 0 40 -10t33 -43q8 -18 23.5 -48t47.5 -59.5t83 -51t129 -21.5q160 0 236.5 97t76.5 253q0 170 -82.5 254t-214.5 84q-49 0 -91 -12.5t-73.5 -28.5t-52.5 -33l-28 -20q-16 -12 -37 -24.5t-51 -12.5q-94 0 -95 78v10l37 539 q4 47 27.5 67.5t66.5 20.5h633q41 0 55.5 -20.5t14.5 -55.5t-14.5 -56.5t-55.5 -21.5h-581l-25 -397q8 10 32.5 28.5t61.5 37t87.5 31.5t109.5 13q117 0 202 -36.5t141 -101t83 -153t27 -188.5q0 -123 -36 -216t-100.5 -155.5t-151.5 -94.5t-192 -32q-106 0 -180 24 t-124 56.5t-78.5 67.5t-43.5 57q-14 23 -23 46.5t-9 52.5z" />
<glyph unicode="6" d="M145 623q0 154 22.5 298t83 255.5t165 178t270.5 66.5q80 0 140.5 -16t103.5 -36.5t67.5 -42t30.5 -30.5q16 -23 23.5 -37t7.5 -32q0 -33 -20.5 -52.5t-55.5 -19.5q-27 0 -48.5 15.5t-47.5 31.5q-43 29 -88 51.5t-121 22.5q-154 0 -247 -122t-101 -380q41 70 130 120 t204 50q106 0 191 -35t144.5 -97t91 -151.5t31.5 -197.5q0 -106 -32.5 -195.5t-94 -154t-149.5 -101.5t-199 -37q-258 0 -380 163t-122 485zM330 455q0 -66 18.5 -126.5t57 -107.5t97 -75.5t138.5 -28.5t138.5 28.5t96 76.5t55 109.5t17.5 129.5q0 70 -16.5 132t-53 108.5 t-95 73t-142.5 26.5q-82 0 -141.5 -29t-97 -77t-55 -110.5t-17.5 -129.5z" />
<glyph unicode="7" d="M139 1114v191q0 47 25.5 67.5t68.5 20.5h814q94 0 94 -93q0 -25 -8.5 -50t-30.5 -64q-68 -125 -138.5 -264.5t-141 -287t-137.5 -299.5t-124 -306q-8 -18 -21.5 -30.5t-37.5 -12.5q-35 0 -68 15t-33 48q0 16 5.5 34.5t11.5 35.5q111 285 244 557t290 559h-657v-121 q0 -41 -20.5 -55.5t-57.5 -14.5t-57.5 14.5t-20.5 55.5z" />
<glyph unicode="8" d="M115 385q0 68 20.5 125t56 101t84 77t103.5 51q-84 39 -146.5 116t-62.5 187q0 104 42 177t107.5 117t147.5 64.5t160 20.5q80 0 160.5 -20.5t146 -64.5t107.5 -116.5t42 -177.5q0 -109 -62.5 -186.5t-146.5 -116.5q111 -37 187 -126t76 -228q0 -74 -27 -146.5t-86 -131 t-156.5 -95.5t-240.5 -37q-145 0 -242.5 37t-158 95.5t-86 131t-25.5 146.5zM295 391q0 -74 28.5 -126t75.5 -85t106.5 -47t121.5 -14q59 0 117.5 14t105.5 47t76.5 85t29.5 126t-28.5 125t-74.5 85t-105.5 49.5t-120.5 15.5t-121 -15.5t-107 -49.5t-75.5 -85t-28.5 -125z M342 1042q0 -59 25.5 -104t66.5 -74.5t92.5 -44t100.5 -14.5t100 14.5t92 44t66.5 74.5t25.5 104q0 41 -14 84t-48 77t-88 55.5t-134 21.5t-135.5 -21.5t-88 -55.5t-47 -77t-14.5 -84z" />
<glyph unicode="9" d="M125 932q0 106 32.5 195.5t95 155t153 102t202.5 36.5q252 0 373 -162.5t121 -484.5q0 -154 -22.5 -298t-83 -255.5t-165 -178.5t-270.5 -67q-80 0 -139.5 13.5t-100 31t-64.5 35t-32 23.5q-37 35 -37 69q0 33 26 58.5t54 25.5q33 0 55.5 -17t51 -37.5t73.5 -38 t123 -17.5q154 0 246 120.5t101 379.5q-41 -70 -130.5 -120t-203.5 -50q-106 0 -191.5 33.5t-145 97t-91 152.5t-31.5 198zM299 934q0 -70 16.5 -132.5t53.5 -108.5t95 -72.5t142 -26.5q82 0 141.5 28.5t97.5 77t56.5 110.5t18.5 130q0 66 -18.5 127t-57.5 108.5t-98.5 76 t-139.5 28.5t-138 -28.5t-96 -77t-55.5 -110.5t-17.5 -130z" />
<glyph unicode=":" horiz-adv-x="436" d="M94 106q0 49 37 87t86 38t87 -37.5t38 -87.5q0 -49 -38 -85.5t-87 -36.5t-86 36.5t-37 85.5zM94 901q0 49 37 87t86 38t87 -37.5t38 -87.5q0 -49 -38 -85.5t-87 -36.5t-86 36.5t-37 85.5z" />
<glyph unicode=";" horiz-adv-x="423" d="M98 901q0 49 37 87t86 38t87 -37.5t38 -87.5q0 -49 -38 -85.5t-87 -36.5t-86 36.5t-37 85.5zM102 111q0 57 33 88.5t86 31.5t89 -36.5t36 -110.5q0 -61 -17.5 -113.5t-40 -92.5t-43 -65.5t-26.5 -31.5q-14 -16 -25.5 -19.5t-19.5 -3.5q-27 0 -46.5 14.5t-19.5 37.5 q0 10 3.5 21t19.5 32q23 29 45.5 63.5t26.5 77.5q-45 4 -73 34t-28 73z" />
<glyph unicode="&#x3c;" d="M147 696q0 29 9.5 48.5t40.5 35.5l778 387q18 10 28.5 12.5t22.5 2.5q29 0 51.5 -28t22.5 -64q0 -35 -45 -58l-688 -338l688 -334q45 -23 45 -57q0 -37 -22.5 -64.5t-51.5 -27.5q-12 0 -22.5 2t-28.5 12l-778 385q-31 16 -40.5 37t-9.5 49z" />
<glyph unicode="=" d="M160 487q0 37 16.5 57.5t56.5 20.5h783q41 0 57.5 -20.5t16.5 -57.5t-16.5 -58t-57.5 -21h-783q-41 0 -57 21.5t-16 57.5zM160 905q0 37 16.5 57.5t56.5 20.5h783q41 0 57.5 -20.5t16.5 -57.5t-16.5 -58.5t-57.5 -21.5h-783q-41 0 -57 21.5t-16 58.5z" />
<glyph unicode="&#x3e;" d="M147 303q0 35 46 57l688 334l-688 338q-45 23 -46 58q0 37 23 64.5t51 27.5q12 0 22.5 -2t28.5 -13l779 -387q31 -16 40 -35.5t9 -48.5t-9.5 -49t-39.5 -37l-779 -385q-18 -10 -28.5 -12t-22.5 -2q-29 0 -51.5 27.5t-22.5 64.5z" />
<glyph unicode="?" horiz-adv-x="1087" d="M82 1108q0 16 5.5 38.5t21.5 53.5q12 23 39.5 66t77.5 85t128 72.5t191 30.5q98 0 179 -26.5t139.5 -77t91 -124t32.5 -167.5q0 -76 -20.5 -134.5t-54 -103.5t-75.5 -80.5t-85 -66.5q-47 -35 -77 -62.5t-46.5 -52t-22.5 -50.5t-6 -58q0 -45 -20.5 -61.5t-61.5 -16.5 q-39 0 -59.5 16.5t-20.5 61.5v22q0 59 16.5 104.5t43 80t60.5 63.5t71 55q33 25 64.5 51.5t56 58.5t39 72.5t14.5 96.5q0 121 -70.5 184.5t-197.5 63.5q-80 0 -132.5 -25t-85 -58.5t-48 -69.5t-23.5 -58q-12 -37 -30.5 -46.5t-45.5 -9.5q-35 0 -61.5 18.5t-26.5 53.5z M406 96q0 47 33.5 81t78.5 34q47 0 81 -34t34 -81q0 -45 -34 -78.5t-81 -33.5q-45 0 -78.5 33.5t-33.5 78.5z" />
<glyph unicode="@" horiz-adv-x="1878" d="M100 422q0 186 63.5 345t176.5 274.5t266.5 180t333.5 64.5q190 0 345 -64.5t264.5 -173t169 -251t59.5 -295.5q0 -168 -41 -272.5t-102.5 -162t-132 -78t-128.5 -20.5q-92 0 -142 38t-67 106q-39 -66 -111.5 -105t-158.5 -39q-92 0 -166 35t-127 98.5t-81.5 150.5 t-28.5 189t28.5 187.5t81.5 147t127 96t166 34.5q53 0 95 -13t74 -34.5t53.5 -47.5t33.5 -48v37q0 43 20.5 59.5t59.5 16.5q41 0 61.5 -16.5t20.5 -59.5v-598q0 -35 15 -60.5t63 -25.5q39 0 77.5 17.5t69.5 61.5t50.5 119.5t19.5 190.5q0 119 -46 232.5t-132.5 200.5 t-210 140.5t-279.5 53.5q-145 0 -268 -52.5t-212 -146.5t-139.5 -226.5t-50.5 -289.5q0 -158 55.5 -285t155 -217t236.5 -139t301 -49q141 0 218 20.5t103 28.5q20 6 29.5 7t22.5 1q35 -2 51 -33t16 -53q0 -29 -12 -44.5t-41 -25.5t-125 -34.5t-276 -24.5q-193 0 -358 61.5 t-286.5 173t-190.5 269t-69 348.5zM666 442q0 -63 14 -122.5t44 -104.5t76 -72.5t111 -27.5q57 0 103.5 23.5t77 66.5t47 102t16.5 129q0 63 -16.5 122.5t-47 104t-76.5 71t-104 26.5q-66 0 -111.5 -25.5t-75.5 -68.5t-44 -101.5t-14 -122.5z" />
<glyph unicode="A" horiz-adv-x="1376" d="M41 59q0 6 2 16.5t10 26.5l539 1278q12 25 33.5 40.5t64.5 15.5q47 0 68.5 -15.5t32.5 -40.5l534 -1274q8 -16 9 -25t1 -18q0 -37 -33.5 -57t-72.5 -20q-29 0 -45.5 15t-26.5 38l-158 369h-626l-160 -371q-23 -51 -68 -51q-37 0 -70.5 19.5t-33.5 53.5zM436 559h500 l-248 639z" />
<glyph unicode="B" horiz-adv-x="1314" d="M170 88v1245q0 47 25.5 67.5t68.5 20.5h363q283 0 415 -89t132 -288q0 -106 -52.5 -184t-150.5 -123q129 -45 190.5 -136t61.5 -202q0 -205 -132.5 -302t-406.5 -97h-420q-43 0 -68.5 20.5t-25.5 67.5zM346 158h330q195 0 276.5 59t81.5 182q0 61 -18.5 107.5t-63.5 78 t-117.5 47t-183.5 15.5h-305v-489zM346 797h258q109 0 182.5 14t118.5 43t64.5 73t19.5 103q0 61 -18.5 105.5t-61.5 73t-113.5 42t-174.5 13.5h-275v-467z" />
<glyph unicode="C" horiz-adv-x="1425" d="M104 709q0 170 48.5 308t136.5 235.5t212 150.5t275 53q100 0 178 -22.5t133.5 -52t90 -61.5t51.5 -50q37 -43 70.5 -99.5t33.5 -97.5q0 -45 -33.5 -61.5t-62.5 -16.5q-27 0 -44 15.5t-32 42.5q-23 41 -55.5 83t-77.5 76.5t-106.5 57t-143.5 22.5q-117 0 -206 -43 t-150.5 -119.5t-92 -184t-30.5 -236.5q0 -127 30.5 -234.5t92 -184.5t151 -120t205.5 -43q92 0 157.5 25.5t111 63.5t74 81t48.5 78q18 33 36 48t44 15q29 0 61.5 -16t32.5 -62q0 -41 -31.5 -97t-68.5 -99q-14 -16 -50 -50t-94.5 -67t-138 -57.5t-184.5 -24.5 q-152 0 -275.5 53.5t-211.5 149.5t-136.5 233.5t-48.5 307.5z" />
<glyph unicode="D" horiz-adv-x="1462" d="M170 88v1245q0 47 25.5 67.5t70.5 20.5h381q160 0 291 -43t225 -130t145.5 -221t51.5 -318q0 -182 -51.5 -315.5t-145.5 -220.5t-225 -130t-291 -43h-381q-45 0 -70.5 20.5t-25.5 67.5zM352 158h283q119 0 217 33.5t168 101t107.5 171.5t37.5 245t-39 245.5t-108.5 173 t-167.5 102.5t-215 34h-283v-1106z" />
<glyph unicode="E" horiz-adv-x="1234" d="M170 88v1245q0 47 25.5 67.5t68.5 20.5h811q41 0 58.5 -19.5t17.5 -58.5t-17.5 -59t-58.5 -20h-725v-459h686q41 0 58.5 -19.5t17.5 -58.5t-17.5 -59.5t-58.5 -20.5h-686v-489h725q41 0 58.5 -19.5t17.5 -58.5t-17.5 -59.5t-58.5 -20.5h-811q-43 0 -68.5 20.5t-25.5 67.5 z" />
<glyph unicode="F" horiz-adv-x="1159" d="M170 70v1263q0 47 25.5 67.5t68.5 20.5h770q41 0 58.5 -19.5t17.5 -58.5t-17.5 -59t-58.5 -20h-684v-461h625q41 0 58.5 -19.5t17.5 -58.5t-17.5 -59.5t-58.5 -20.5h-625v-575q0 -47 -23.5 -65.5t-66.5 -18.5t-66.5 18.5t-23.5 65.5z" />
<glyph unicode="G" horiz-adv-x="1495" d="M104 698q0 145 38 282.5t121 243t213 169t315 63.5q137 0 256.5 -46t197.5 -136q37 -43 63.5 -88t26.5 -86q0 -23 -10 -37t-24.5 -23.5t-31 -12.5t-30.5 -3q-27 0 -42 13.5t-36 45.5q-66 111 -156 161t-214 50q-111 0 -201 -36.5t-154.5 -111.5t-100.5 -186.5t-36 -261.5 q0 -279 115.5 -425t345.5 -146q61 0 139 16.5t148.5 65.5t118.5 141t48 244h-354q-41 0 -58.5 20.5t-17.5 59.5t17.5 58.5t58.5 19.5h418q43 0 68.5 -20.5t25.5 -67.5v-607q0 -41 -20.5 -56t-57.5 -15q-39 0 -58 15t-19 56v142q-27 -35 -65 -76t-95.5 -76t-136 -58.5 t-189.5 -23.5q-150 0 -266.5 51.5t-196.5 146.5t-122 230t-42 305z" />
<glyph unicode="H" horiz-adv-x="1476" d="M170 70v1282q0 47 24.5 65.5t67.5 18.5t66.5 -18.5t23.5 -65.5v-518h772v518q0 47 23.5 65.5t66.5 18.5t68 -18.5t25 -65.5v-1282q0 -47 -25 -65.5t-68 -18.5t-66.5 18.5t-23.5 65.5v606h-772v-606q0 -47 -23.5 -65.5t-66.5 -18.5t-67.5 18.5t-24.5 65.5z" />
<glyph unicode="I" horiz-adv-x="520" d="M170 70v1282q0 47 23.5 65.5t66.5 18.5t66.5 -18.5t23.5 -65.5v-1282q0 -47 -23.5 -65.5t-66.5 -18.5t-66.5 18.5t-23.5 65.5z" />
<glyph unicode="J" horiz-adv-x="1099" d="M57 297q0 45 34 64.5t67 19.5t49 -20.5t33 -53.5q18 -37 41.5 -70.5t54.5 -59t71 -41t95 -15.5q145 0 203.5 83t58.5 259v889q0 47 23.5 65.5t66.5 18.5t66.5 -18.5t23.5 -65.5v-887q0 -260 -115.5 -380t-347.5 -120q-100 0 -169.5 26.5t-115.5 64.5t-75 82t-45 81 q-18 43 -19 78z" />
<glyph unicode="K" horiz-adv-x="1302" d="M150 70v1282q0 47 23.5 65.5t68.5 18.5q43 0 66.5 -18.5t23.5 -65.5v-609l692 660q33 33 66 33q37 0 62.5 -27t25.5 -55q0 -10 -7.5 -26.5t-29.5 -39.5l-463 -444l563 -719q14 -18 17.5 -32.5t3.5 -22.5q0 -16 -9.5 -31.5t-24 -27t-30.5 -18.5t-31 -7q-47 0 -86 49 l-536 690l-213 -201v-454q0 -47 -23.5 -65.5t-66.5 -18.5q-45 0 -68.5 18.5t-23.5 65.5z" />
<glyph unicode="L" horiz-adv-x="1153" d="M170 88v1264q0 47 23.5 65.5t66.5 18.5t66.5 -18.5t23.5 -65.5v-1194h684q41 0 58.5 -19.5t17.5 -58.5t-17.5 -59.5t-58.5 -20.5h-770q-43 0 -68.5 20.5t-25.5 67.5z" />
<glyph unicode="M" horiz-adv-x="1781" d="M170 66v1263q0 59 31.5 83t87.5 24q57 0 83.5 -19.5t43.5 -58.5l479 -1145l479 1145q16 39 42 58.5t81 19.5t85 -23.5t30 -83.5v-1263q0 -45 -22.5 -62.5t-63.5 -17.5t-64.5 17t-23.5 63v1050l-443 -1044q-12 -29 -36.5 -49.5t-67.5 -20.5t-67.5 20.5t-37.5 49.5 l-442 1042v-1048q0 -45 -23.5 -62.5t-64.5 -17.5t-63.5 17t-22.5 63z" />
<glyph unicode="N" horiz-adv-x="1472" d="M170 66v1282q0 49 27.5 68.5t78.5 19.5q49 0 75 -21.5t48 -56.5l727 -1084v1082q0 45 24 62.5t64 17.5q41 0 65 -17.5t24 -62.5v-1282q0 -49 -28 -68.5t-79 -19.5q-49 0 -74.5 21.5t-48.5 55.5l-727 1080v-1077q0 -45 -23.5 -62.5t-64.5 -17.5t-64.5 17t-23.5 63z" />
<glyph unicode="O" horiz-adv-x="1564" d="M104 711q0 172 49.5 310t138.5 235.5t214 148.5t276 51q152 0 277 -51t214 -148.5t138 -235.5t49 -310t-49 -310.5t-138 -235.5t-214 -148.5t-277 -51.5t-276.5 51.5t-213.5 148.5t-138.5 235.5t-49.5 310.5zM299 711q0 -133 30.5 -241t92 -183.5t152 -117.5t208.5 -42 q119 0 209 42t151.5 117.5t92.5 183.5t31 241q0 131 -31 239.5t-92.5 184t-151.5 117.5t-209 42t-209 -42t-151.5 -117.5t-92 -184t-30.5 -239.5z" />
<glyph unicode="P" horiz-adv-x="1255" d="M170 70v1263q0 47 25.5 67.5t68.5 20.5h367q281 0 412 -110.5t131 -317.5q0 -57 -19.5 -131t-77 -139.5t-159 -110.5t-265.5 -45h-305v-497q0 -47 -23.5 -65.5t-66.5 -18.5t-65.5 18.5t-22.5 65.5zM348 721h258q109 0 182.5 19.5t117.5 55t63.5 86t19.5 111.5 q0 59 -18.5 109.5t-61.5 87.5t-112.5 57.5t-171.5 20.5h-277v-547z" />
<glyph unicode="Q" horiz-adv-x="1564" d="M104 711q0 172 49.5 310t138.5 235.5t214 148.5t276 51q152 0 277 -51t214 -148.5t138 -235.5t49 -310q0 -211 -71.5 -368t-198.5 -253l104 -164q14 -23 18.5 -38t4.5 -25q0 -35 -31 -56.5t-59 -21.5q-14 0 -30.5 7t-39.5 42l-113 176q-125 -45 -262 -45 q-152 0 -276.5 51.5t-213.5 148.5t-138.5 235.5t-49.5 310.5zM299 711q0 -133 30.5 -241t92 -183.5t152 -117.5t208.5 -42q96 0 170 27l-88 139q-16 25 -19 39t-3 24q0 33 30.5 54.5t59.5 21.5q14 0 31.5 -7t40.5 -40l92 -147q170 158 170 473q0 131 -31 239.5t-92.5 184 t-151.5 117.5t-209 42t-209 -42t-151.5 -117.5t-92 -184t-30.5 -239.5z" />
<glyph unicode="R" horiz-adv-x="1288" d="M170 70v1263q0 47 25.5 67.5t68.5 20.5h365q283 0 414 -102t131 -307q0 -45 -11.5 -97.5t-40 -102.5t-82 -94t-135.5 -75l281 -522q12 -25 14 -37t2 -21q0 -37 -31.5 -57t-70.5 -20q-29 0 -47.5 15t-36.5 52l-293 557q-16 -2 -33.5 -3t-36.5 -1h-305v-536 q0 -47 -23.5 -65.5t-66.5 -18.5t-65.5 18.5t-22.5 65.5zM348 760h266q109 0 180.5 16.5t114.5 48t60.5 78.5t17.5 109q0 59 -17.5 107t-60.5 81t-112.5 50.5t-173.5 17.5h-275v-508z" />
<glyph unicode="S" horiz-adv-x="1236" d="M86 240q0 33 30.5 59.5t63.5 26.5q18 -2 32.5 -12.5t27.5 -22.5q98 -100 194 -136t217 -36q131 0 216 60.5t85 176.5q0 102 -61.5 162t-202.5 100l-178 52q-190 53 -283.5 143t-93.5 252q0 102 44 176t114.5 122t155.5 70.5t169 22.5q141 0 265.5 -47t210.5 -156 q16 -23 22 -39t6 -32q0 -35 -26.5 -57.5t-57.5 -22.5q-20 0 -37.5 9t-40.5 32q-78 86 -157.5 123t-186.5 37q-57 0 -110 -14.5t-95 -43t-68 -73t-26 -101.5q0 -39 11.5 -70.5t39 -60.5t77 -53.5t122.5 -46.5l226 -70q178 -53 261 -144t83 -247q0 -109 -40 -186.5 t-106.5 -129t-153.5 -75t-180 -23.5q-154 0 -294 43t-238 148q-27 29 -32 48t-5 36z" />
<glyph unicode="T" horiz-adv-x="1232" d="M20 1343q0 39 17.5 58.5t60.5 19.5h1037q43 0 60 -19.5t17 -58.5t-17 -59t-60 -20h-428v-1194q0 -47 -24 -65.5t-67 -18.5t-66.5 18.5t-23.5 65.5v1194h-428q-43 0 -60.5 20.5t-17.5 58.5z" />
<glyph unicode="U" horiz-adv-x="1456" d="M160 518v834q0 47 24.5 65.5t67.5 18.5t66.5 -18.5t23.5 -65.5v-820q0 -205 102.5 -306t282.5 -101q184 0 285.5 101.5t101.5 305.5v820q0 47 23.5 65.5t66.5 18.5t67.5 -18.5t24.5 -65.5v-834q0 -123 -36.5 -224t-108.5 -174t-178.5 -114t-245.5 -41t-244.5 41 t-177.5 114t-108.5 174t-36.5 224z" />
<glyph unicode="V" horiz-adv-x="1318" d="M51 1358q0 37 34 57.5t73 20.5q53 0 69 -47l432 -1149l441 1151q10 23 23.5 34t41.5 11q37 0 70 -19.5t33 -54.5q0 -14 -6.5 -31.5t-16.5 -38.5l-489 -1251q-10 -25 -32 -40t-67 -15q-47 0 -68.5 15t-31.5 40l-483 1243q-10 23 -16.5 40t-6.5 34z" />
<glyph unicode="W" horiz-adv-x="1912" d="M61 1362q0 37 33 55.5t74 18.5q55 0 70 -54l307 -1110l315 1096q10 33 32.5 50.5t65.5 17.5q80 0 99 -68l315 -1096l307 1110q14 53 68 54q39 0 71.5 -17.5t32.5 -54.5q0 -16 -6 -37.5t-12 -42.5l-360 -1231q-18 -67 -101 -67h-2q-82 0 -100 67l-316 1059l-313 -1059 q-18 -67 -98 -67h-2q-84 0 -103 67l-360 1231q-4 18 -10.5 41t-6.5 37z" />
<glyph unicode="X" horiz-adv-x="1280" d="M41 57q0 29 25 64l469 610l-426 563q-12 16 -20.5 32.5t-8.5 33.5q0 35 31.5 55.5t60.5 20.5q23 0 40 -7.5t36 -29.5l397 -529l404 529q18 23 33.5 30t37.5 7q29 0 56.5 -20.5t27.5 -55.5q0 -16 -8 -32.5t-20 -33.5l-428 -557l456 -602q35 -49 35 -76q0 -33 -30.5 -53 t-63.5 -20q-23 0 -40.5 9t-39.5 38l-426 561l-440 -571q-16 -23 -32.5 -30t-37.5 -7q-31 0 -59.5 19.5t-28.5 51.5z" />
<glyph unicode="Y" horiz-adv-x="1239" d="M35 1356q0 35 31.5 57.5t62.5 22.5q43 0 68 -37l428 -598l422 592q29 43 69 43q29 0 58.5 -20.5t29.5 -55.5q0 -16 -8 -32.5t-18 -33.5l-465 -643v-581q0 -47 -23.5 -65.5t-66.5 -18.5t-68 18.5t-25 65.5v583q-111 150 -234.5 318t-234.5 319q-10 16 -18 32.5t-8 33.5z " />
<glyph unicode="Z" horiz-adv-x="1222" d="M53 90q0 25 9.5 46.5t35.5 56.5l840 1071h-762q-41 0 -58.5 20.5t-17.5 58.5q0 39 17.5 58.5t58.5 19.5h885q96 0 96 -90q0 -25 -10 -46t-35 -56l-842 -1071h822q43 0 60 -19.5t17 -58.5t-17 -59.5t-60 -20.5h-942q-96 0 -97 90z" />
<glyph unicode="[" horiz-adv-x="604" d="M170 -190v1613q0 47 25.5 67.5t68.5 20.5h236q39 0 52 -16t13 -51t-13 -51.5t-52 -16.5h-164v-1519h164q39 0 52 -16.5t13 -51.5t-13 -51.5t-52 -16.5h-236q-43 0 -68.5 20.5t-25.5 68.5z" />
<glyph unicode="\" horiz-adv-x="929" d="M29 1368q0 29 24.5 48.5t65.5 19.5q25 0 39 -12.5t26 -34.5l695 -1272q23 -39 22 -66q0 -29 -24.5 -48t-65.5 -19q-25 0 -39 12t-27 35l-694 1272q-23 39 -22 65z" />
<glyph unicode="]" horiz-adv-x="604" d="M39 -211q0 35 13.5 51.5t51.5 16.5h164v1519h-164q-39 0 -52 16.5t-13 51.5t13.5 51t51.5 16h236q43 0 68.5 -20.5t25.5 -67.5v-1613q0 -47 -25.5 -68t-68.5 -21h-236q-39 0 -52 16.5t-13 51.5z" />
<glyph unicode="^" horiz-adv-x="978" d="M86 733q0 12 3 24.5t15 35.5l285 569q16 31 38 45t62 14q43 0 64.5 -14t38.5 -45l285 -569q12 -23 15 -35.5t3 -24.5q0 -29 -26.5 -48t-61.5 -19t-49.5 13t-24.5 36l-241 493l-244 -493q-10 -23 -24.5 -36t-49.5 -13t-61.5 19.5t-26.5 47.5z" />
<glyph unicode="_" horiz-adv-x="1011" d="M6 -362q0 35 14.5 54t55.5 19h860q41 0 55.5 -19.5t14.5 -53.5q0 -35 -14.5 -54.5t-55.5 -19.5h-860q-41 0 -55.5 19.5t-14.5 54.5z" />
<glyph unicode="`" horiz-adv-x="802" d="M184 1446q0 35 30 65.5t73 30.5q31 0 55.5 -20.5t56.5 -59.5l136 -168q27 -29 26 -61q0 -27 -18.5 -44.5t-46.5 -17.5q-29 0 -49.5 12.5t-40.5 30.5l-175 156q-47 43 -47 76z" />
<glyph unicode="a" horiz-adv-x="1144" d="M104 268q0 80 29 147.5t98.5 116t185 76t292.5 31.5l106 2v41q0 117 -60.5 174t-195.5 57q-53 0 -92 -12t-66.5 -28.5t-45 -35t-29.5 -32.5q-20 -25 -35 -33t-37 -8q-33 0 -60.5 19.5t-27.5 50.5q0 16 3 26t9 23q2 6 24.5 34.5t68.5 61.5t119 58.5t177 25.5 q117 0 198 -29.5t130 -79t71.5 -114t22.5 -133.5v-654q0 -67 -85 -67h-3q-59 0 -72.5 26.5t-13.5 73.5v61q-20 -29 -49 -59.5t-71 -56t-100 -42t-134 -16.5q-92 0 -158.5 22.5t-111 62.5t-66 94.5t-21.5 115.5zM279 285q0 -70 48 -120t158 -50q96 0 175 44t120 109 q35 55 35 150v86l-113 -2q-131 -2 -212.5 -18.5t-129 -44t-64.5 -66.5t-17 -88z" />
<glyph unicode="b" horiz-adv-x="1218" d="M156 63v1291q0 47 22.5 64.5t63.5 17.5t64.5 -17.5t23.5 -64.5v-467q16 31 47 62.5t73 56t95 41t119 16.5q106 0 190 -40t142.5 -111.5t88 -171t29.5 -220.5t-29.5 -222t-88 -175t-142.5 -115t-190 -41q-125 0 -212 55.5t-130 135.5v-95q0 -45 -21.5 -61t-62.5 -16 t-61.5 16t-20.5 61zM324 518q0 -86 19 -158.5t58 -126t96.5 -83t131.5 -29.5q72 0 128 28.5t94 81t58.5 125t20.5 158.5q0 88 -18.5 159.5t-55.5 124t-92 81t-129 28.5q-147 0 -229 -103.5t-82 -285.5z" />
<glyph unicode="c" horiz-adv-x="1075" d="M100 516q0 121 33 221.5t94.5 173t151.5 112.5t207 40q88 0 154.5 -21.5t114.5 -54.5t78 -71.5t46 -71.5q8 -16 12 -30.5t4 -31.5q0 -37 -26.5 -58.5t-57.5 -21.5q-23 0 -38 9.5t-37 42.5q-12 16 -31 42.5t-47.5 51t-70.5 42t-101 17.5q-154 0 -227.5 -104.5 t-73.5 -284.5q0 -184 73.5 -290.5t227.5 -106.5q55 0 94 13t66.5 33.5t46 44t34.5 46.5q25 35 40.5 47t41.5 12q29 0 56.5 -20.5t27.5 -50.5q0 -29 -14 -56q-10 -23 -38 -60.5t-76 -74.5t-116.5 -63.5t-162.5 -26.5q-117 0 -207 41t-151.5 114t-94.5 174t-33 222z" />
<glyph unicode="d" horiz-adv-x="1218" d="M104 518q0 121 30 221.5t88.5 172t141 111.5t191.5 40q63 0 117.5 -16.5t96.5 -41t72.5 -56t47.5 -62.5v467q0 47 23.5 64.5t64.5 17.5t63.5 -17.5t22.5 -64.5v-1291q0 -45 -20.5 -61t-61.5 -16t-62.5 16t-21.5 61v95q-43 -80 -130 -135.5t-212 -55.5q-109 0 -191.5 41 t-141 114t-88.5 174t-30 222zM289 512q0 -178 77.5 -284.5t223.5 -106.5q74 0 131 29.5t96 83t58.5 126t19.5 158.5q0 182 -82 285.5t-229 103.5q-74 0 -129.5 -28.5t-92 -81t-55 -125t-18.5 -160.5z" />
<glyph unicode="e" horiz-adv-x="1159" d="M100 514q0 123 35 223.5t99.5 173t155.5 112.5t204 40q115 0 203 -40t147.5 -110.5t90 -166.5t30.5 -207q0 -74 -84 -74h-696q0 -166 83 -256t234 -90q59 0 103.5 15.5t75 37t50 44t31.5 38.5q14 20 27.5 30.5t40.5 10.5q29 0 56.5 -18.5t27.5 -49.5q0 -27 -23 -63 q-18 -29 -48 -62.5t-76 -64.5t-111.5 -51.5t-153.5 -20.5q-115 0 -208 40t-158.5 112.5t-100.5 174t-35 222.5zM293 618h596q-6 57 -25.5 111.5t-55.5 94.5t-89 64.5t-125 24.5t-125 -23.5t-90 -63.5t-58.5 -94t-27.5 -114z" />
<glyph unicode="f" horiz-adv-x="636" d="M31 954q0 35 14 54.5t55 19.5h95v143q0 127 78.5 206t230.5 79q43 0 85 -9t73.5 -24.5t52 -36t20.5 -45.5q0 -35 -21.5 -59.5t-49.5 -24.5q-18 0 -34 9.5t-33 19.5t-38.5 19.5t-52.5 9.5q-59 0 -98 -33t-39 -123v-131h180q41 0 55 -19.5t14 -54.5t-14 -54t-55 -19h-180 v-813q0 -47 -23.5 -64.5t-64.5 -17.5t-63.5 17t-22.5 65v813h-95q-41 0 -55 19.5t-14 53.5z" />
<glyph unicode="g" horiz-adv-x="1218" d="M104 530q0 117 30 214.5t88.5 168t141 110.5t191.5 40q63 0 118.5 -16.5t98.5 -43t75 -60.5t50 -69v91q0 45 21.5 61t62.5 16t61.5 -16t20.5 -61v-934q0 -135 -36 -228.5t-98.5 -151t-149.5 -83t-191 -25.5q-86 0 -159 15.5t-124 38.5q-53 25 -87 50t-34 64 q0 18 9.5 35.5t19.5 30.5q8 10 22.5 19t32.5 9t35 -10l14 -8q59 -35 127 -63.5t158 -28.5q125 0 206 73.5t81 243.5v152q-41 -70 -125 -122t-209 -52q-109 0 -191.5 39t-141 109.5t-88.5 171t-30 220.5zM289 524q0 -180 76.5 -280.5t224.5 -100.5q150 0 227.5 106.5 t77.5 278.5q0 184 -82 281.5t-229 97.5t-221 -102.5t-74 -280.5z" />
<glyph unicode="h" horiz-adv-x="1191" d="M156 68v1286q0 47 22.5 64.5t63.5 17.5t64.5 -17.5t23.5 -64.5v-473q29 53 76 90q55 47 125.5 69.5t142.5 22.5q162 0 262 -90t100 -277v-639q0 -71 -82 -71h-2q-90 0 -90 71v596q0 123 -50 185.5t-181 62.5q-80 0 -137.5 -36t-93 -93t-53 -129t-17.5 -141v-434 q0 -47 -23.5 -64.5t-64.5 -17.5t-63.5 17t-22.5 65z" />
<glyph unicode="i" horiz-adv-x="485" d="M131 1325q0 53 32 83t79 30t78.5 -30t31.5 -83t-31.5 -83t-78.5 -30t-79 30t-32 83zM156 68v893q0 47 22.5 64t63.5 17t64.5 -17t23.5 -64v-893q0 -47 -23.5 -64.5t-64.5 -17.5t-63.5 17t-22.5 65z" />
<glyph unicode="j" horiz-adv-x="485" d="M-211 -342q0 35 21.5 59.5t50.5 24.5q18 0 33.5 -7t34 -16.5t41 -16.5t53.5 -7q59 0 96 32.5t37 122.5v1111q0 47 22.5 64t63.5 17t64.5 -17t23.5 -64v-1133q0 -127 -78 -206t-219 -79q-47 0 -91 8.5t-78 23.5t-54.5 36.5t-20.5 46.5zM131 1325q0 53 32 83t79 30 t78.5 -30t31.5 -83t-31.5 -83t-78.5 -30t-79 30t-32 83z" />
<glyph unicode="k" horiz-adv-x="1075" d="M156 68v1286q0 47 22.5 64.5t63.5 17.5t64.5 -17.5t23.5 -64.5v-740l491 402q14 10 27.5 18t30.5 8q35 0 58.5 -23.5t23.5 -51.5q0 -10 -5.5 -25.5t-27.5 -34.5l-289 -239l367 -553q10 -16 14 -31.5t4 -22.5q-2 -35 -35 -55t-67 -20q-18 0 -33 7t-33 36l-352 536 l-174 -147v-350q0 -47 -23.5 -64.5t-64.5 -17.5t-63.5 17t-22.5 65z" />
<glyph unicode="l" horiz-adv-x="485" d="M156 68v1286q0 47 22.5 64.5t63.5 17.5t64.5 -17.5t23.5 -64.5v-1286q0 -47 -23.5 -64.5t-64.5 -17.5t-63.5 17t-22.5 65z" />
<glyph unicode="m" horiz-adv-x="1816" d="M156 68v897q0 45 20.5 61t61.5 16t62.5 -16t21.5 -61v-97q2 8 16 37q16 33 53 68t99.5 62.5t156.5 27.5q125 0 204 -50t114 -136q43 84 133 135t213 51q162 0 256 -87t94 -267v-652q0 -71 -82 -71h-2q-90 0 -90 71v596q0 57 -9.5 104.5t-34 79t-66.5 49t-107 17.5 q-80 0 -133.5 -37t-84 -94t-44 -129t-13.5 -141v-445q0 -71 -82 -71h-2q-90 0 -90 71v596q0 57 -9 104.5t-33.5 79t-66.5 49t-108 17.5q-80 0 -133 -36t-84 -93t-44 -129t-13 -141v-436q0 -47 -23.5 -64.5t-64.5 -17.5t-63.5 17t-22.5 65z" />
<glyph unicode="n" horiz-adv-x="1191" d="M156 68v897q0 45 20.5 61t61.5 16t62.5 -16t21.5 -61v-97q29 53 77 97q41 37 107.5 67.5t167.5 30.5q162 0 262 -90t100 -277v-639q0 -71 -82 -71h-2q-90 0 -90 71v596q0 121 -50 184.5t-181 63.5q-80 0 -137.5 -36t-93 -93t-53 -128t-17.5 -140v-436q0 -47 -23.5 -64.5 t-64.5 -17.5t-63.5 17t-22.5 65z" />
<glyph unicode="o" horiz-adv-x="1204" d="M100 516q0 129 36 230.5t102.5 172t158.5 107.5t205 37t205 -37t158.5 -107.5t102.5 -172t36 -230.5t-36 -231.5t-102.5 -173t-158.5 -108.5t-205 -38t-205 38t-158.5 108.5t-102.5 173t-36 231.5zM285 516q0 -186 82 -292.5t235 -106.5q154 0 236 106.5t82 292.5 t-82 290.5t-236 104.5t-235.5 -104.5t-81.5 -290.5z" />
<glyph unicode="p" horiz-adv-x="1218" d="M156 -354v1319q0 45 20.5 61t61.5 16t62.5 -16t21.5 -61v-101q43 84 130 141.5t212 57.5q106 0 190 -40t142.5 -111.5t88 -172t29.5 -223.5q0 -121 -29.5 -222t-88 -174t-142.5 -114t-190 -41q-129 0 -211 49t-123 115v-483q0 -47 -23.5 -64.5t-64.5 -17.5t-63.5 17.5 t-22.5 64.5zM324 504q0 -182 81.5 -284.5t229.5 -102.5q74 0 129 28.5t92 81t55.5 125t18.5 160.5q0 180 -74 286.5t-219 106.5q-74 0 -132.5 -31.5t-98 -87t-61 -128t-21.5 -154.5z" />
<glyph unicode="q" horiz-adv-x="1218" d="M104 516q0 123 30 223.5t88.5 172t141 111.5t191.5 40q63 0 118.5 -16.5t98.5 -43t75 -60.5t50 -69v91q0 45 21.5 61t62.5 16t61.5 -16t20.5 -61v-1319q0 -47 -23.5 -64.5t-64.5 -17.5t-63.5 17.5t-22.5 64.5v499q-41 -72 -125 -126t-209 -54q-109 0 -191.5 41t-141 115 t-88.5 174t-30 221zM289 510q0 -174 77.5 -282.5t223.5 -108.5q74 0 131 29.5t96 84t58.5 127t19.5 158.5q0 182 -82 285.5t-229 103.5t-221 -108.5t-74 -288.5z" />
<glyph unicode="r" horiz-adv-x="743" d="M156 68v897q0 45 20.5 61t61.5 16t62.5 -16t21.5 -61v-117q55 102 138 148t177 46q47 0 67.5 -20.5t20.5 -65.5q0 -47 -20.5 -69.5t-67.5 -22.5q-307 0 -307 -383v-413q0 -47 -23.5 -64.5t-64.5 -17.5t-63.5 17t-22.5 65z" />
<glyph unicode="s" horiz-adv-x="1048" d="M106 135q0 35 25 64.5t59 29.5q20 0 38 -8t40 -24q35 -25 100.5 -55.5t163.5 -30.5q109 0 167.5 43t58.5 116q0 27 -6.5 51.5t-28 47t-62 40t-110.5 27.5l-125 21q-133 20 -218 94t-85 207q0 145 107.5 225t291.5 80q82 0 142.5 -11.5t101.5 -27.5t67.5 -33.5t40.5 -29.5 q39 -33 39 -66t-19.5 -58.5t-55.5 -25.5q-23 0 -42.5 9t-45.5 26q-39 23 -93.5 47.5t-142.5 24.5q-111 0 -163 -41t-52 -105q0 -27 6 -51.5t25.5 -46t57.5 -37.5t101 -25l127 -20q158 -23 237 -97.5t79 -209.5q0 -150 -104.5 -235t-299.5 -85q-78 0 -140 10.5t-110.5 25.5 t-80.5 33t-50 32q-23 18 -32 35.5t-9 33.5z" />
<glyph unicode="t" horiz-adv-x="720" d="M31 954q0 35 14 54.5t55 19.5h93v211q0 39 7 57.5t29 32.5q37 23 80 23q57 0 58 -60v-264h192q41 0 55.5 -19.5t14.5 -54.5t-14.5 -54t-55.5 -19h-192v-607q0 -90 27.5 -122.5t92.5 -32.5q25 0 42.5 6t31.5 12t27.5 12.5t32.5 6.5q29 0 50 -25t21 -59q0 -49 -63.5 -77 t-159.5 -28q-141 0 -208.5 68.5t-67.5 200.5v645h-93q-41 0 -55 19.5t-14 53.5z" />
<glyph unicode="u" horiz-adv-x="1191" d="M156 332v639q0 71 82 71h2q90 0 90 -71v-596q0 -121 49 -184.5t182 -63.5q80 0 137.5 36t93 93t53 129t17.5 141v435q0 47 23.5 64t64.5 17t63.5 -17t22.5 -64v-898q0 -45 -20.5 -61t-61.5 -16t-62.5 16t-21.5 61v99q-29 -55 -77 -99q-41 -37 -109 -67.5t-166 -30.5 q-80 0 -147.5 22.5t-114.5 67.5t-73.5 114t-26.5 163z" />
<glyph unicode="v" horiz-adv-x="1046" d="M39 967q0 35 31.5 55t70.5 20q47 0 70 -57l315 -774l318 778q12 29 26.5 41t38.5 12q37 0 68 -18t31 -53q0 -14 -7.5 -31.5t-15.5 -36.5l-367 -864q-10 -25 -31.5 -39t-66.5 -14t-66.5 14t-31.5 39l-361 856l-15 37.5t-7 34.5z" />
<glyph unicode="w" horiz-adv-x="1536" d="M39 971q0 37 36 54t70 17q29 0 43.5 -14t22.5 -37l242 -772l225 758q12 37 32.5 51t61.5 14t62.5 -13t31.5 -52l230 -758l237 776q6 23 19.5 35t42.5 12q35 0 68.5 -16t33.5 -51q0 -14 -4 -25.5t-8 -25.5l-297 -875q-10 -33 -34 -48t-69 -15t-68.5 14t-33.5 49l-223 727 l-217 -727q-10 -35 -34 -49t-69 -14t-68.5 15t-33.5 48l-287 866q-4 16 -8 27.5t-4 28.5z" />
<glyph unicode="x" horiz-adv-x="1009" d="M41 59q0 29 20 56l345 428l-297 366q-20 29 -21 56q0 31 31 55t59 24q18 0 33.5 -7t36.5 -31l260 -338l268 338q18 23 33.5 29.5t34.5 6.5q29 0 55.5 -23.5t26.5 -53.5q0 -27 -21 -54l-295 -366l338 -428q12 -16 16.5 -28.5t4.5 -29.5q0 -31 -30 -52t-58 -21q-18 0 -35 7 t-37 32l-305 387l-309 -389q-18 -23 -37 -30t-37 -7q-29 0 -54.5 21.5t-25.5 51.5z" />
<glyph unicode="y" horiz-adv-x="1040" d="M39 967q0 35 31.5 55t70.5 20q47 0 70 -57l305 -749l322 753q12 29 26.5 41t38.5 12q37 0 67.5 -18t30.5 -53q0 -14 -7 -31.5t-15 -36.5l-559 -1284q-14 -29 -30.5 -43t-49.5 -14q-35 0 -59.5 19.5t-24.5 53.5q0 10 3 24.5t13 35.5l150 336l-359 864q-8 20 -16 37.5 t-8 34.5z" />
<glyph unicode="z" horiz-adv-x="1028" d="M57 90q0 25 8.5 42.5t34.5 47.5l609 701h-553q-41 0 -55.5 19.5t-14.5 53.5q0 35 14.5 54.5t55.5 19.5h678q100 0 100 -90q0 -25 -8 -42t-35 -48l-606 -701h614q41 0 55.5 -19t14.5 -54t-14.5 -54.5t-55.5 -19.5h-741q-100 0 -101 90z" />
<glyph unicode="{" horiz-adv-x="628" d="M78 618q0 35 13 51.5t48 20.5q33 4 60.5 25.5t27.5 72.5v486q0 47 9.5 90t34 76t68.5 52t112 19h73q39 0 52.5 -16t13.5 -51t-13.5 -51.5t-52.5 -16.5h-43q-59 0 -73.5 -32.5t-14.5 -86.5v-417q0 -86 -18.5 -140.5t-65.5 -81.5q47 -27 65.5 -82t18.5 -141v-420 q0 -53 14.5 -85.5t73.5 -32.5h43q39 0 52.5 -16.5t13.5 -51.5t-13.5 -51.5t-52.5 -16.5h-73q-68 0 -112 19.5t-68.5 52.5t-34 76t-9.5 90v487q0 51 -27.5 73t-60.5 26q-35 4 -48 20.5t-13 52.5z" />
<glyph unicode="|" horiz-adv-x="526" d="M182 -197v1627q0 47 21.5 64t58.5 17q41 0 62.5 -17t21.5 -64v-1627q0 -47 -21.5 -64.5t-62.5 -17.5q-37 0 -58.5 17.5t-21.5 64.5z" />
<glyph unicode="}" horiz-adv-x="628" d="M39 -211q0 35 13.5 51.5t51.5 16.5h43q59 0 74 32.5t15 85.5v420q0 86 18 141t65 82q-47 27 -65 81.5t-18 140.5v417q0 53 -14.5 86t-74.5 33h-43q-39 0 -52 16.5t-13 51.5t13.5 51t51.5 16h74q68 0 112 -19t68.5 -52t33.5 -76t9 -90v-486q0 -51 28 -72.5t60 -25.5 q35 -4 48.5 -20.5t13.5 -51.5q0 -37 -13.5 -53t-48.5 -20q-33 -4 -60.5 -25.5t-27.5 -73.5v-487q0 -47 -9 -90t-33.5 -76t-68.5 -52.5t-112 -19.5h-74q-39 0 -52 16.5t-13 51.5z" />
<glyph unicode="~" horiz-adv-x="1173" d="M43 545q0 16 13.5 40.5t58.5 73.5q37 41 88 70t114 29q66 0 125.5 -20.5t118.5 -49.5l131 -61q39 -18 76 -30.5t78 -12.5q51 0 83.5 30.5t61.5 65.5q18 20 41 20q8 0 23.5 -5t31 -15t27.5 -23.5t12 -31.5q0 -16 -13 -41t-58 -74q-35 -37 -88.5 -67.5t-112.5 -30.5 q-66 0 -126 20.5t-120 48.5l-121 58q-41 20 -78.5 34.5t-82.5 14.5q-53 0 -87 -32t-61 -67q-18 -20 -41 -20q-8 0 -23.5 5t-30.5 15.5t-27.5 23.5t-12.5 32z" />
<glyph unicode="&#xa1;" horiz-adv-x="536" d="M156 950q0 45 33.5 79t80.5 34q45 0 79 -34t34 -79q0 -47 -34 -80.5t-79 -33.5q-47 0 -80.5 33.5t-33.5 80.5zM174 -47l21 610q2 41 20 55.5t55 14.5t53.5 -14.5t18.5 -55.5l20 -610v-258q0 -47 -23.5 -65.5t-70.5 -18.5t-70.5 18.5t-23.5 65.5v258z" />
<glyph unicode="&#xa2;" d="M180 715q0 111 28 206t81 166.5t131 115.5t178 57v141q0 41 18.5 55t53.5 14t54 -14t19 -55v-144q70 -10 122.5 -32.5t90 -53t63 -63.5t40.5 -64q8 -16 12 -30.5t4 -30.5q0 -37 -29.5 -59.5t-60.5 -22.5q-23 0 -40 8.5t-36 42.5q-6 10 -17 29.5t-31.5 41t-49.5 42 t-68 33.5v-770q37 10 64 27.5t45 37t30.5 38t18.5 30.5q23 37 39 48t43 11q29 0 59.5 -22.5t30.5 -53.5q0 -29 -14 -55q-10 -20 -34 -53t-61.5 -65.5t-92 -61.5t-128.5 -39v-152q0 -41 -19 -55t-54 -14t-53.5 14t-18.5 55v150q-100 12 -178 56t-131 116t-81 167t-28 208z M365 717q0 -162 57 -265.5t176 -125.5v776q-119 -25 -176 -126t-57 -259z" />
<glyph unicode="&#xa3;" d="M80 717q0 35 14.5 51t55.5 16h129q-23 51 -36.5 108.5t-13.5 129.5q0 82 29 154.5t85 127t140 86t195 31.5q109 0 188.5 -28.5t135 -68.5t88 -81t47.5 -67q14 -27 18 -47.5t4 -36.5q0 -35 -28.5 -53.5t-59.5 -18.5q-23 0 -39 8t-33 41q-12 25 -33.5 60.5t-57.5 67.5 t-89 55.5t-127 23.5q-84 0 -140 -20.5t-89 -55.5t-46.5 -79t-13.5 -91q0 -68 23 -126t51 -120h391q41 0 55.5 -16t14.5 -51t-14.5 -52.5t-55.5 -17.5h-336q14 -47 24.5 -98t10.5 -111q0 -59 -23.5 -109t-55 -87t-63.5 -61.5t-46 -33.5h721q41 0 55 -19t14 -54t-14 -54.5 t-55 -19.5h-850q-53 0 -73.5 21.5t-20.5 66.5q0 35 11 57.5t42 38.5q41 23 77 45.5t61.5 51t39.5 65.5t14 90q0 59 -16 109.5t-41 101.5h-194q-41 0 -55.5 17.5t-14.5 52.5z" />
<glyph unicode="&#xa4;" horiz-adv-x="1175" d="M37 1167q0 25 11 45.5t27.5 36t37 24.5t39.5 9q39 0 73 -35l140 -141q23 16 53.5 29.5t64 23.5t67.5 16.5t64 6.5q76 0 136.5 -18.5t126.5 -63.5l133 133q33 35 63 35q43 0 77 -29t34 -76q0 -37 -27 -63l-141 -144q35 -63 53 -123.5t18 -125.5q0 -61 -18 -125t-53 -125 l141 -140q23 -27 23 -61q0 -47 -34 -71.5t-63 -24.5q-27 0 -46 12t-38 29l-114 106q-66 -33 -137.5 -54.5t-133.5 -21.5q-82 0 -147.5 17.5t-118.5 62.5l-135 -129q-33 -31 -80 -30q-33 0 -62.5 24.5t-29.5 71.5q0 39 29 67l141 142q-35 61 -52.5 122.5t-17.5 127.5 t18.5 130t53.5 128l-147 135q-18 16 -23.5 33.5t-5.5 33.5zM313 707q0 -61 22.5 -116.5t62.5 -95.5t95.5 -63.5t118.5 -23.5q61 0 116.5 23.5t95.5 63.5t63.5 95.5t23.5 116.5t-23.5 115.5t-63.5 95t-95 64.5t-117 24q-63 0 -118.5 -24t-95.5 -64.5t-62.5 -95t-22.5 -115.5z " />
<glyph unicode="&#xa5;" d="M104 1325q0 35 29 55.5t55 20.5q43 0 72 -41l367 -563l372 567q16 23 30.5 30t35.5 7q29 0 55.5 -19.5t26.5 -54.5q0 -16 -8.5 -32.5t-18.5 -32.5l-315 -471h182q41 0 55.5 -16.5t14.5 -51.5t-14.5 -52.5t-55.5 -17.5h-272v-184h272q41 0 55.5 -16.5t14.5 -51.5 t-14.5 -52t-55.5 -17h-272v-262q0 -47 -23.5 -65.5t-66.5 -18.5t-66.5 18.5t-23.5 65.5v262h-267q-41 0 -55 17.5t-14 51.5q0 35 14 51.5t55 16.5h267v184h-267q-41 0 -55 17.5t-14 52.5t14 51.5t55 16.5h176l-313 469q-10 16 -18.5 32.5t-8.5 32.5z" />
<glyph unicode="&#xa6;" horiz-adv-x="526" d="M182 -197v631q0 47 21.5 64.5t58.5 17.5q41 0 62.5 -17.5t21.5 -64.5v-631q0 -47 -21.5 -64.5t-62.5 -17.5q-37 0 -58.5 17.5t-21.5 64.5zM182 799v631q0 47 21.5 64t58.5 17q41 0 62.5 -17t21.5 -64v-631q0 -47 -21.5 -64.5t-62.5 -17.5q-37 0 -58.5 17.5t-21.5 64.5z " />
<glyph unicode="&#xa7;" horiz-adv-x="1142" d="M96 -4q0 35 28 65.5t62 30.5q20 0 39 -9.5t39 -25.5q16 -12 40 -29.5t58.5 -35t80.5 -28.5t110 -11q127 0 193.5 45t66.5 135q0 84 -52 133t-159 60l-135 12q-55 6 -115.5 25.5t-112 54.5t-84 88t-32.5 127q0 51 15.5 93t42 73.5t59 54.5t67.5 39q-78 41 -116.5 99.5 t-38.5 129.5q0 59 23.5 118.5t74.5 107t131 77t190 29.5q76 0 137.5 -12t108.5 -29.5t79 -36t44 -28.5q29 -23 38 -41.5t9 -34.5q0 -35 -27.5 -65.5t-62.5 -30.5q-20 0 -38.5 9t-39.5 25q-16 12 -39.5 28.5t-56.5 30t-76 24t-98 10.5q-100 0 -159.5 -48.5t-59.5 -130.5 q0 -25 10 -52.5t34.5 -51t67.5 -40.5t109 -26l119 -14q178 -23 249.5 -97.5t71.5 -187.5q0 -45 -15 -85t-42 -73.5t-61.5 -57t-73.5 -33.5q109 -35 152.5 -111t43.5 -160q0 -70 -28.5 -130t-84 -104t-138 -70t-193.5 -26q-92 0 -163 13.5t-122 33t-83.5 41t-49.5 35.5 q-37 37 -37 68zM295 645q0 -70 65.5 -117t214.5 -47q104 0 174 42t70 118q0 78 -78.5 127t-210.5 49q-111 0 -173 -49t-62 -123z" />
<glyph unicode="&#xa8;" horiz-adv-x="1024" d="M195 1341q0 47 30.5 77t79.5 30q41 0 78 -26.5t37 -80.5q0 -49 -32 -77.5t-83 -28.5t-80.5 28.5t-29.5 77.5zM627 1341q0 47 31.5 77t80.5 30q43 0 78 -26.5t35 -80.5q0 -49 -30.5 -77.5t-82.5 -28.5q-51 0 -81.5 28.5t-30.5 77.5z" />
<glyph unicode="&#xa9;" horiz-adv-x="1765" d="M86 727q0 158 62.5 297t171 243.5t253 165t310.5 60.5t310 -60.5t252.5 -165t171 -243.5t62.5 -297t-62.5 -297t-171 -243.5t-252.5 -165t-310 -60.5t-310.5 60.5t-253 165t-171 243.5t-62.5 297zM252 727q0 -129 50 -243.5t136 -199.5t201 -135.5t244 -50.5t243.5 50.5 t200.5 135.5t136 199.5t50 243.5t-50 243.5t-136 199.5t-200.5 135.5t-243.5 50.5t-244 -50.5t-201 -135.5t-136 -199.5t-50 -243.5zM483 729q0 98 30 180t85 142.5t132 93.5t171 33q117 0 208 -52.5t138 -130.5q29 -47 29 -90q0 -27 -26.5 -45t-55.5 -18q-25 0 -42 8 t-32 35q-16 27 -32.5 51.5t-41 42.5t-61.5 29.5t-90 11.5q-121 0 -178.5 -81t-57.5 -210q0 -133 59.5 -213t186.5 -80q74 0 122 23.5t77 79.5q14 29 27.5 39t31.5 10q31 0 62.5 -19.5t31.5 -52.5q0 -37 -20 -71.5t-47 -63.5q-47 -49 -124 -73.5t-169 -24.5q-98 0 -175 31.5 t-130 90t-81 141.5t-28 183z" />
<glyph unicode="&#xaa;" horiz-adv-x="796" d="M61 903q0 55 21.5 95t56.5 68t80 45t92 28q57 10 107.5 17t132.5 11v29q0 59 -32 92t-130 33q-47 0 -92 -12.5t-92 -53.5q-16 -12 -26.5 -20t-26.5 -8q-29 0 -50.5 23.5t-21.5 49.5q0 25 22.5 52.5t64.5 50t102.5 37t133.5 14.5q154 0 230 -61.5t76 -190.5v-442 q0 -35 -23.5 -48.5t-60.5 -13.5q-33 0 -53.5 13.5t-20.5 48.5v69q-41 -59 -106.5 -94t-159.5 -35q-102 0 -163 55.5t-61 147.5zM227 920q0 -37 21.5 -65t81.5 -28q43 0 83 15.5t70.5 42t49 61.5t18.5 74v43q-80 -4 -125 -11.5t-68 -13.5q-80 -20 -105.5 -50t-25.5 -68z" />
<glyph unicode="&#xab;" horiz-adv-x="1110" d="M82 543q0 18 8 32.5t19 24.5l292 332q33 37 66 37q35 0 62.5 -27t27.5 -59q0 -16 -8 -31.5t-31 -40.5l-233 -262l227 -266q20 -23 27.5 -37.5t7.5 -30.5q0 -33 -27.5 -57.5t-60.5 -24.5q-39 0 -72 39l-274 307q-10 12 -20.5 29.5t-10.5 34.5zM543 543q0 18 8 32.5 t19 24.5l292 332q33 37 66 37q35 0 62.5 -27t27.5 -59q0 -16 -8 -31.5t-31 -40.5l-233 -262l227 -266q20 -23 27.5 -37.5t7.5 -30.5q0 -33 -27.5 -57.5t-60.5 -24.5q-39 0 -72 39l-274 307q-10 12 -20.5 29.5t-10.5 34.5z" />
<glyph unicode="&#xac;" d="M160 868q0 37 16.5 57.5t56.5 20.5h783q41 0 57.5 -20.5t16.5 -59.5v-432q0 -41 -20.5 -57.5t-57.5 -16.5t-58.5 16.5t-21.5 57.5v354h-699q-41 0 -57 21.5t-16 58.5z" />
<glyph unicode="&#xad;" horiz-adv-x="581" d="M49 528q0 41 17.5 62.5t60.5 21.5h328q43 0 60 -21.5t17 -62.5t-17 -64.5t-60 -23.5h-328q-43 0 -60.5 23.5t-17.5 64.5z" />
<glyph unicode="&#xae;" horiz-adv-x="1765" d="M86 727q0 158 62.5 297t171 243.5t253 165t310.5 60.5t310 -60.5t252.5 -165t171 -243.5t62.5 -297t-62.5 -297t-171 -243.5t-252.5 -165t-310 -60.5t-310.5 60.5t-253 165t-171 243.5t-62.5 297zM252 727q0 -129 50 -243.5t136 -199.5t201 -135.5t244 -50.5t243.5 50.5 t200.5 135.5t136 199.5t50 243.5t-50 243.5t-136 199.5t-200.5 135.5t-243.5 50.5t-244 -50.5t-201 -135.5t-136 -199.5t-50 -243.5zM588 367v733q0 27 13 45t48 18h225q176 0 266.5 -66.5t90.5 -215.5q0 -66 -27.5 -127.5t-103.5 -102.5l96 -248q6 -16 6 -38q0 -63 -78 -64 q-41 0 -57 17.5t-31 52.5l-82 245h-206v-249q0 -66 -76 -66q-39 0 -61.5 15.5t-22.5 50.5zM748 758h178q72 0 105.5 35t33.5 98q0 59 -38 96t-109 37h-170v-266z" />
<glyph unicode="&#xaf;" horiz-adv-x="716" d="M49 1339q0 43 15.5 62.5t56.5 19.5h454q41 0 56.5 -19.5t15.5 -62.5q0 -47 -18.5 -63t-59.5 -16h-450q-35 0 -52.5 16t-17.5 63z" />
<glyph unicode="&#xb0;" horiz-adv-x="774" d="M55 1130q0 68 27 126.5t72 102.5t105 69.5t128 25.5t128 -25.5t105.5 -69.5t72 -102.5t26.5 -126.5t-26.5 -126t-72 -102t-105.5 -69.5t-128 -25.5t-128 25.5t-105 69.5t-72 102.5t-27 125.5zM188 1130q0 -41 16.5 -77.5t43 -64t62.5 -44t77 -16.5q39 0 76 16.5t63.5 44 t43 64t16.5 77.5t-16.5 78t-43 64.5t-63.5 44t-76 16.5q-41 0 -77 -16.5t-62.5 -44t-43 -64.5t-16.5 -78z" />
<glyph unicode="&#xb1;" d="M160 82q0 37 16.5 57.5t56.5 20.5h783q41 0 57.5 -20.5t16.5 -57.5t-16.5 -58.5t-57.5 -21.5h-783q-41 0 -57 21.5t-16 58.5zM160 757q0 37 16.5 57.5t56.5 20.5h310v330q0 45 20.5 61.5t59.5 16.5q41 0 61.5 -16.5t20.5 -61.5v-330h311q41 0 57.5 -20.5t16.5 -57.5 t-16.5 -58.5t-57.5 -21.5h-311v-327q0 -45 -20.5 -61.5t-61.5 -16.5q-39 0 -59.5 16.5t-20.5 61.5v327h-310q-41 0 -57 21.5t-16 58.5z" />
<glyph unicode="&#xb2;" horiz-adv-x="954" d="M152 1200q0 27 17 50.5t32 37.5q45 47 117.5 90t187.5 43q59 0 112.5 -16t94.5 -49t64.5 -83t23.5 -118q0 -61 -19.5 -113.5t-51.5 -96.5t-70.5 -83t-77.5 -74q-29 -25 -63 -50t-89 -66h332q57 0 57 -68q0 -29 -12 -52.5t-49 -23.5h-525q-33 0 -44 20.5t-11 41.5 q0 31 12.5 50t45.5 44q63 45 133.5 100.5t131 114.5t100.5 119.5t40 120.5q0 72 -41 109.5t-115 37.5q-66 0 -106.5 -26.5t-69.5 -59.5q-20 -23 -38.5 -43t-47.5 -20q-27 0 -49 18.5t-22 44.5z" />
<glyph unicode="&#xb3;" horiz-adv-x="954" d="M152 698q0 29 22.5 50.5t50.5 21.5q20 0 35.5 -12.5t38.5 -30.5q35 -29 80 -53.5t113 -24.5q72 0 117.5 32t45.5 97q0 39 -15 63.5t-40 39t-56.5 20.5t-64.5 6h-39q-25 0 -35 21.5t-10 46.5q0 23 10.5 46t34.5 23h35q74 0 117 31t43 94q0 66 -45 94.5t-105 28.5 q-59 0 -98 -23.5t-76 -62.5q-16 -18 -31.5 -29.5t-31.5 -11.5q-29 0 -52.5 19.5t-23.5 44.5q0 27 16.5 48t32.5 38q45 45 116 75.5t167 30.5q131 0 206.5 -57t75.5 -168q0 -76 -42 -131t-101 -82q78 -20 126 -71.5t48 -133.5q0 -68 -27.5 -117t-73.5 -80.5t-103.5 -47 t-114.5 -15.5q-106 0 -179 27.5t-120 68.5q-18 16 -32.5 37t-14.5 47z" />
<glyph unicode="&#xb4;" horiz-adv-x="802" d="M178 1231q0 33 27 61l135 164q33 39 59.5 58.5t57.5 19.5q47 0 71.5 -26.5t24.5 -61.5q0 -33 -47 -76l-174 -156q-20 -18 -41 -30.5t-49 -12.5q-29 0 -46.5 16.5t-17.5 43.5z" />
<glyph unicode="&#xb5;" horiz-adv-x="1269" d="M166 -371v1340q0 47 22.5 66.5t71.5 19.5q41 0 67.5 -19.5t26.5 -66.5v-561q0 -47 6.5 -85t18.5 -65q23 -49 77 -84t126 -35q70 0 120 21.5t83.5 53.5t52 67.5t24.5 62.5q10 47 13.5 99.5t3.5 86.5v433q0 47 22.5 69.5t75.5 22.5q41 0 65.5 -20.5t24.5 -67.5v-723 q0 -51 13.5 -68.5t37.5 -17.5q18 0 41 6t39 6q33 0 47.5 -22.5t14.5 -57.5q0 -33 -11 -51q-18 -35 -61 -48.5t-94 -13.5q-88 0 -136.5 47.5t-58.5 112.5q-31 -51 -68.5 -82.5t-78.5 -50t-83 -25t-81 -6.5q-33 0 -69 6.5t-67.5 20.5t-59 34.5t-44.5 51.5v-457q0 -86 -86 -86 q-41 0 -68.5 19.5t-27.5 66.5z" />
<glyph unicode="&#xb6;" horiz-adv-x="1247" d="M98 1006q0 199 124 305t351 106h424q39 0 56.5 -22.5t17.5 -61.5v-1444q0 -47 -23.5 -65.5t-66.5 -18.5t-66.5 18.5t-23.5 65.5v1368h-287v-1368q0 -47 -23.5 -65.5t-66.5 -18.5t-66.5 18.5t-23.5 65.5v729q-66 8 -125 38t-104 79t-71 117t-26 154z" />
<glyph unicode="&#xb7;" horiz-adv-x="473" d="M113 719q0 49 36.5 87t86.5 38q49 0 86.5 -38t37.5 -87t-37.5 -86t-86.5 -37t-86 37t-37 86z" />
<glyph unicode="&#xb8;" horiz-adv-x="958" d="M240 -367q0 25 16 47.5t45 22.5q18 0 34.5 -7t33 -16.5t37 -16.5t47.5 -7q43 0 69.5 18.5t26.5 55.5q0 27 -12.5 43t-32 23t-46 9t-55.5 2q-45 0 -55 16.5t-4 39.5l43 137h121l-23 -84q111 -10 161 -56t50 -128t-56 -140.5t-183 -58.5q-70 0 -110 13.5t-62 23.5 q-45 25 -45 63z" />
<glyph unicode="&#xb9;" horiz-adv-x="954" d="M158 1200q0 29 18.5 44.5t59.5 35.5q55 29 90.5 47.5t81.5 46.5q29 18 58.5 32.5t68.5 14.5q31 0 54 -19.5t23 -66.5v-723q0 -33 -13 -58.5t-64 -25.5q-82 0 -82 90v607l-33 -17l-42 -21t-42.5 -20.5t-34.5 -15.5q-16 -6 -36.5 -13.5t-43.5 -7.5q-25 0 -44 15.5t-19 54.5 z" />
<glyph unicode="&#xba;" horiz-adv-x="854" d="M78 1075q0 86 26.5 157t74.5 120t113.5 75.5t143.5 26.5t142.5 -26.5t110.5 -75.5t71.5 -118t25.5 -155q0 -88 -26.5 -157.5t-72.5 -117.5t-111.5 -73.5t-141.5 -25.5q-168 0 -262 98t-94 272zM246 1073q0 -104 48 -167.5t140 -63.5t139.5 63.5t47.5 167.5 q0 111 -47.5 177.5t-139.5 66.5q-88 0 -138 -66.5t-50 -177.5z" />
<glyph unicode="&#xbb;" horiz-adv-x="1110" d="M92 883q0 33 27.5 59.5t62.5 26.5q33 0 66 -37l293 -332q10 -10 18 -24.5t8 -32.5q0 -16 -10 -33.5t-20 -30.5l-275 -307q-33 -39 -72 -39q-33 0 -60.5 24.5t-27.5 57.5q0 16 7.5 30.5t27.5 37.5l228 266l-234 262q-23 25 -31 40t-8 32zM553 883q0 33 27.5 59.5 t62.5 26.5q33 0 66 -37l293 -332q10 -10 18 -24.5t8 -32.5q0 -16 -10 -33.5t-20 -30.5l-275 -307q-33 -39 -72 -39q-33 0 -60.5 24.5t-27.5 57.5q0 16 7.5 30.5t27.5 37.5l228 266l-234 262q-23 25 -31 40t-8 32z" />
<glyph unicode="&#xbc;" horiz-adv-x="1968" d="M37 1200q0 29 18.5 44.5t59.5 35.5q55 29 90.5 47.5t81.5 46.5q29 18 58.5 32.5t68.5 14.5q31 0 54 -19.5t23 -66.5v-723q0 -33 -13 -58.5t-64 -25.5q-82 0 -82 90v607l-33 -17l-42 -21t-42.5 -20.5t-34.5 -15.5q-16 -6 -36.5 -13.5t-43.5 -7.5q-25 0 -44 15.5t-19 54.5z M510 29q0 10 2 20t10 27l641 1298q20 43 60 43q37 0 62.5 -19.5t25.5 -41.5q0 -10 -2 -20.5t-10 -26.5l-639 -1293q-10 -23 -24.5 -35t-43.5 -12q-35 0 -58.5 18.5t-23.5 41.5zM1079 265q0 29 9.5 47t21.5 34l391 488q27 33 51.5 47t63.5 14q35 0 55.5 -17.5t20.5 -55.5 v-488h92q27 0 37 -19.5t10 -47.5q0 -27 -11.5 -46.5t-39.5 -19.5h-88v-133q0 -25 -15.5 -45.5t-58.5 -20.5q-82 0 -82 66v133h-381q-76 0 -76 64zM1251 334h285v357z" />
<glyph unicode="&#xbd;" horiz-adv-x="1968" d="M13 1200q0 29 18.5 44.5t59.5 35.5q55 29 90.5 47.5t81.5 46.5q29 18 58.5 32.5t68.5 14.5q31 0 54 -19.5t23 -66.5v-723q0 -33 -13 -58.5t-64 -25.5q-82 0 -82 90v607l-33 -17l-42 -21t-42.5 -20.5t-34.5 -15.5q-16 -6 -36.5 -13.5t-43.5 -7.5q-25 0 -44 15.5t-19 54.5z M442 29q0 10 2 20t10 27l641 1298q20 43 60 43q37 0 62.5 -19.5t25.5 -41.5q0 -10 -2 -20.5t-10 -26.5l-639 -1293q-10 -23 -24.5 -35t-43.5 -12q-35 0 -58.5 18.5t-23.5 41.5zM1182 674q0 27 17 50.5t32 37.5q45 47 117.5 90t187.5 43q59 0 112.5 -16t94.5 -49t64.5 -83 t23.5 -118q0 -61 -19.5 -113.5t-51.5 -96.5t-70.5 -83t-77.5 -74q-29 -25 -63 -50t-89 -66h332q57 0 57 -68q0 -29 -12 -52.5t-49 -23.5h-525q-33 0 -44 20.5t-11 41.5q0 31 12.5 50t45.5 44q63 45 133.5 100.5t131 114.5t100.5 119.5t40 120.5q0 72 -41 109.5t-115 37.5 q-66 0 -106.5 -26.5t-69.5 -59.5q-20 -23 -38.5 -43t-47.5 -20q-27 0 -49 18.5t-22 44.5z" />
<glyph unicode="&#xbe;" horiz-adv-x="1968" d="M76 698q0 29 22.5 50.5t50.5 21.5q20 0 35.5 -12.5t38.5 -30.5q35 -29 80 -53.5t113 -24.5q72 0 117.5 32t45.5 97q0 39 -15 63.5t-40 39t-56.5 20.5t-64.5 6h-39q-25 0 -35 21.5t-10 46.5q0 23 10.5 46t34.5 23h35q74 0 117 31t43 94q0 66 -45 94.5t-105 28.5 q-59 0 -98 -23.5t-76 -62.5q-16 -18 -31.5 -29.5t-31.5 -11.5q-29 0 -52.5 19.5t-23.5 44.5q0 27 16.5 48t32.5 38q45 45 116 75.5t167 30.5q131 0 206.5 -57t75.5 -168q0 -76 -42 -131t-101 -82q78 -20 126 -71.5t48 -133.5q0 -68 -27.5 -117t-73.5 -80.5t-103.5 -47 t-114.5 -15.5q-106 0 -179 27.5t-120 68.5q-18 16 -32.5 37t-14.5 47zM618 29q0 10 2 20t10 27l641 1298q20 43 60 43q37 0 62.5 -19.5t25.5 -41.5q0 -10 -2 -20.5t-10 -26.5l-639 -1293q-10 -23 -24.5 -35t-43.5 -12q-35 0 -58.5 18.5t-23.5 41.5zM1124 265q0 29 9.5 47 t21.5 34l391 488q27 33 51.5 47t63.5 14q35 0 55.5 -17.5t20.5 -55.5v-488h92q27 0 37 -19.5t10 -47.5q0 -27 -11.5 -46.5t-39.5 -19.5h-88v-133q0 -25 -15.5 -45.5t-58.5 -20.5q-82 0 -82 66v133h-381q-76 0 -76 64zM1296 334h285v357z" />
<glyph unicode="&#xbf;" horiz-adv-x="1099" d="M113 -12q0 76 20.5 134t54 103t75.5 81t85 67q47 35 77 62.5t46 52t22.5 50t6.5 58.5q0 45 20.5 61.5t61.5 16.5q39 0 59.5 -16.5t20.5 -61.5v-23q0 -59 -16.5 -104t-43.5 -80t-60.5 -63.5t-70.5 -55.5q-33 -25 -64.5 -51t-56 -58t-39 -73t-14.5 -96q0 -121 70.5 -184.5 t197.5 -63.5q80 0 132.5 24.5t85 58.5t48 69.5t23.5 58.5q12 37 30.5 46t45.5 9q35 0 61.5 -18.5t26.5 -52.5q0 -16 -5.5 -39t-21.5 -54q-12 -23 -39.5 -65.5t-78 -84.5t-128 -73t-190.5 -31q-98 0 -179 27t-139.5 77t-91 124t-32.5 168zM467 950q0 45 34 79t81 34 q45 0 78.5 -34t33.5 -79q0 -47 -33.5 -80.5t-78.5 -33.5q-47 0 -81 33.5t-34 80.5z" />
<glyph unicode="&#xc0;" horiz-adv-x="1376" d="M41 59q0 6 2 16.5t10 26.5l539 1278q12 25 33.5 40.5t64.5 15.5q47 0 68.5 -15.5t32.5 -40.5l534 -1274q8 -16 9 -25t1 -18q0 -37 -33.5 -57t-72.5 -20q-29 0 -45.5 15t-26.5 38l-158 369h-626l-160 -371q-23 -51 -68 -51q-37 0 -70.5 19.5t-33.5 53.5zM436 559h500 l-248 639zM477 1745q0 35 25.5 65.5t66.5 30.5q29 0 56.5 -16.5t60.5 -40.5l174 -127q23 -16 33 -29.5t10 -36.5q0 -29 -19.5 -48t-48.5 -19q-27 0 -49.5 8t-40.5 18l-203 109q-35 18 -50 37.5t-15 48.5z" />
<glyph unicode="&#xc1;" horiz-adv-x="1376" d="M41 59q0 6 2 16.5t10 26.5l539 1278q12 25 33.5 40.5t64.5 15.5q47 0 68.5 -15.5t32.5 -40.5l534 -1274q8 -16 9 -25t1 -18q0 -37 -33.5 -57t-72.5 -20q-29 0 -45.5 15t-26.5 38l-158 369h-626l-160 -371q-23 -51 -68 -51q-37 0 -70.5 19.5t-33.5 53.5zM436 559h500 l-248 639zM475 1585q0 23 8 36t31 30l174 127q33 25 62.5 40t58.5 15q41 0 64.5 -26.5t23.5 -61.5q0 -29 -15.5 -48.5t-50.5 -37.5l-202 -109q-18 -10 -40 -18t-49 -8q-29 0 -47 16t-18 45z" />
<glyph unicode="&#xc2;" horiz-adv-x="1376" d="M41 59q0 6 2 16.5t10 26.5l539 1278q12 25 33.5 40.5t64.5 15.5q47 0 68.5 -15.5t32.5 -40.5l534 -1274q8 -16 9 -25t1 -18q0 -37 -33.5 -57t-72.5 -20q-29 0 -45.5 15t-26.5 38l-158 369h-626l-160 -371q-23 -51 -68 -51q-37 0 -70.5 19.5t-33.5 53.5zM383 1587 q0 16 4 29.5t19 28.5l162 139q39 33 66.5 49t62.5 16q31 0 57.5 -14t62.5 -49l156 -141q16 -14 19.5 -28.5t3.5 -27.5q0 -29 -20.5 -47t-49.5 -18t-47.5 11t-38.5 28l-145 129l-152 -127q-23 -16 -43 -28.5t-49 -12.5t-48.5 17.5t-19.5 45.5zM436 559h500l-248 639z" />
<glyph unicode="&#xc3;" horiz-adv-x="1376" d="M41 59q0 6 2 16.5t10 26.5l539 1278q12 25 33.5 40.5t64.5 15.5q47 0 68.5 -15.5t32.5 -40.5l534 -1274q8 -16 9 -25t1 -18q0 -37 -33.5 -57t-72.5 -20q-29 0 -45.5 15t-26.5 38l-158 369h-626l-160 -371q-23 -51 -68 -51q-37 0 -70.5 19.5t-33.5 53.5zM332 1612 q0 29 13 53.5t30 46.5q33 39 75 63.5t87 24.5q37 0 67.5 -9t65.5 -24l76 -28q23 -10 51 -18.5t51 -8.5q41 0 57.5 13.5t32.5 41.5q8 14 19.5 24.5t27.5 10.5t38 -12t22 -35q0 -12 -5 -33q-16 -72 -71 -119t-123 -47q-37 0 -66.5 7.5t-60.5 19.5l-78 31q-31 12 -56.5 20 t-47.5 8q-37 0 -56.5 -14t-42.5 -41q-8 -10 -19 -19t-28 -9q-23 0 -41 13t-18 40zM436 559h500l-248 639z" />
<glyph unicode="&#xc4;" horiz-adv-x="1376" d="M41 59q0 6 2 16.5t10 26.5l539 1278q12 25 33.5 40.5t64.5 15.5q47 0 68.5 -15.5t32.5 -40.5l534 -1274q8 -16 9 -25t1 -18q0 -37 -33.5 -57t-72.5 -20q-29 0 -45.5 15t-26.5 38l-158 369h-626l-160 -371q-23 -51 -68 -51q-37 0 -70.5 19.5t-33.5 53.5zM379 1651 q0 45 28.5 72.5t75.5 27.5q41 0 75 -24.5t34 -75.5q0 -47 -30.5 -74t-78.5 -27q-47 0 -75.5 27t-28.5 74zM436 559h500l-248 639zM787 1651q0 45 29.5 72.5t76.5 27.5q41 0 74 -24.5t33 -75.5q0 -47 -30 -74t-77 -27t-76.5 27t-29.5 74z" />
<glyph unicode="&#xc5;" horiz-adv-x="1376" d="M41 59q0 6 2 16.5t10 26.5l539 1278q12 25 33.5 40.5t64.5 15.5q47 0 68.5 -15.5t32.5 -40.5l534 -1274q8 -16 9 -25t1 -18q0 -37 -33.5 -57t-72.5 -20q-29 0 -45.5 15t-26.5 38l-158 369h-626l-160 -371q-23 -51 -68 -51q-37 0 -70.5 19.5t-33.5 53.5zM436 559h500 l-248 639zM469 1726q0 45 17.5 85t47 70t70.5 47.5t88 17.5t88 -17.5t71 -47.5t47 -70t17 -85t-17 -84.5t-47 -69.5t-71 -47.5t-88 -17.5t-88 17.5t-70.5 47.5t-47 69.5t-17.5 84.5zM578 1726q0 -47 33.5 -82.5t80.5 -35.5t81 35.5t34 82.5t-34 83t-81 36t-80.5 -35.5 t-33.5 -83.5z" />
<glyph unicode="&#xc6;" horiz-adv-x="1972" d="M41 55q0 6 1 16.5t11 26.5l742 1260q39 63 104 63h913q41 0 58.5 -19.5t17.5 -58.5t-17.5 -59t-58.5 -20h-725v-459h687q41 0 58 -19.5t17 -58.5t-17 -59.5t-58 -20.5h-687v-489h725q41 0 58.5 -19.5t17.5 -58.5t-17.5 -59.5t-58.5 -20.5h-811q-43 0 -68.5 20.5 t-25.5 67.5v320h-473l-221 -375q-10 -16 -29.5 -33.5t-42.5 -17.5q-37 0 -68.5 19t-31.5 54zM520 559h387v676z" />
<glyph unicode="&#xc7;" horiz-adv-x="1425" d="M104 709q0 170 48.5 308t136.5 235.5t212 150.5t275 53q100 0 178 -22.5t133.5 -52t90 -61.5t51.5 -50q37 -43 70.5 -99.5t33.5 -97.5q0 -45 -33.5 -61.5t-62.5 -16.5q-27 0 -44 15.5t-32 42.5q-23 41 -55.5 83t-77.5 76.5t-106.5 57t-143.5 22.5q-117 0 -206 -43 t-150.5 -119.5t-92 -184t-30.5 -236.5q0 -127 30.5 -234.5t92 -184.5t151 -120t205.5 -43q92 0 157.5 25.5t111 63.5t74 81t48.5 78q18 33 36 48t44 15q29 0 61.5 -16t32.5 -62q0 -41 -31.5 -97t-68.5 -99q-14 -16 -50 -50t-94.5 -67t-137.5 -57q-59 -18 -134 -23l-12 -51 q111 -10 161 -56t50 -128t-56.5 -140.5t-183.5 -58.5q-70 0 -109.5 13.5t-62.5 23.5q-45 25 -45 63q0 25 16.5 47.5t45.5 22.5q18 0 34.5 -7t33 -16.5t37 -16.5t46.5 -7q43 0 70 18.5t27 55.5q0 27 -12.5 43t-32 23t-46 9t-55.5 2q-45 0 -55 16.5t-4 39.5l33 106 q-111 8 -207 49q-123 53 -211 149.5t-136.5 234t-48.5 307.5z" />
<glyph unicode="&#xc8;" horiz-adv-x="1234" d="M170 88v1245q0 47 25.5 67.5t68.5 20.5h811q41 0 58.5 -19.5t17.5 -58.5t-17.5 -59t-58.5 -20h-725v-459h686q41 0 58.5 -19.5t17.5 -58.5t-17.5 -59.5t-58.5 -20.5h-686v-489h725q41 0 58.5 -19.5t17.5 -58.5t-17.5 -59.5t-58.5 -20.5h-811q-43 0 -68.5 20.5t-25.5 67.5 zM406 1745q0 35 25.5 65.5t66.5 30.5q29 0 56.5 -16.5t60.5 -40.5l174 -127q23 -16 33 -29.5t10 -36.5q0 -29 -19.5 -48t-48.5 -19q-27 0 -49.5 8t-40.5 18l-203 109q-35 18 -50 37.5t-15 48.5z" />
<glyph unicode="&#xc9;" horiz-adv-x="1234" d="M170 88v1245q0 47 25.5 67.5t68.5 20.5h811q41 0 58.5 -19.5t17.5 -58.5t-17.5 -59t-58.5 -20h-725v-459h686q41 0 58.5 -19.5t17.5 -58.5t-17.5 -59.5t-58.5 -20.5h-686v-489h725q41 0 58.5 -19.5t17.5 -58.5t-17.5 -59.5t-58.5 -20.5h-811q-43 0 -68.5 20.5t-25.5 67.5 zM473 1585q0 23 8 36t31 30l174 127q33 25 62.5 40t58.5 15q41 0 64.5 -26.5t23.5 -61.5q0 -29 -15.5 -48.5t-50.5 -37.5l-202 -109q-18 -10 -40 -18t-49 -8q-29 0 -47 16t-18 45z" />
<glyph unicode="&#xca;" horiz-adv-x="1234" d="M170 88v1245q0 47 25.5 67.5t68.5 20.5h811q41 0 58.5 -19.5t17.5 -58.5t-17.5 -59t-58.5 -20h-725v-459h686q41 0 58.5 -19.5t17.5 -58.5t-17.5 -59.5t-58.5 -20.5h-686v-489h725q41 0 58.5 -19.5t17.5 -58.5t-17.5 -59.5t-58.5 -20.5h-811q-43 0 -68.5 20.5t-25.5 67.5 zM352 1587q0 16 4 29.5t19 28.5l162 139q39 33 66.5 49t62.5 16q31 0 57.5 -14t62.5 -49l156 -141q16 -14 19.5 -28.5t3.5 -27.5q0 -29 -20.5 -47t-49.5 -18t-47.5 11t-38.5 28l-145 129l-152 -127q-23 -16 -43 -28.5t-49 -12.5t-48.5 17.5t-19.5 45.5z" />
<glyph unicode="&#xcb;" horiz-adv-x="1234" d="M170 88v1245q0 47 25.5 67.5t68.5 20.5h811q41 0 58.5 -19.5t17.5 -58.5t-17.5 -59t-58.5 -20h-725v-459h686q41 0 58.5 -19.5t17.5 -58.5t-17.5 -59.5t-58.5 -20.5h-686v-489h725q41 0 58.5 -19.5t17.5 -58.5t-17.5 -59.5t-58.5 -20.5h-811q-43 0 -68.5 20.5t-25.5 67.5 zM348 1651q0 45 28.5 72.5t75.5 27.5q41 0 75 -24.5t34 -75.5q0 -47 -30.5 -74t-78.5 -27q-47 0 -75.5 27t-28.5 74zM756 1651q0 45 29.5 72.5t76.5 27.5q41 0 74 -24.5t33 -75.5q0 -47 -30 -74t-77 -27t-76.5 27t-29.5 74z" />
<glyph unicode="&#xcc;" horiz-adv-x="520" d="M54 1745q0 35 25.5 65.5t66.5 30.5q29 0 56.5 -16.5t60.5 -40.5l174 -127q23 -16 33 -29.5t10 -36.5q0 -29 -19.5 -48t-48.5 -19q-27 0 -49.5 8t-40.5 18l-203 109q-35 18 -50 37.5t-15 48.5zM170 70v1282q0 47 23.5 65.5t66.5 18.5t66.5 -18.5t23.5 -65.5v-1282 q0 -47 -23.5 -65.5t-66.5 -18.5t-66.5 18.5t-23.5 65.5z" />
<glyph unicode="&#xcd;" horiz-adv-x="520" d="M51 1585q0 23 8 36t31 30l174 127q33 25 62.5 40t58.5 15q41 0 64.5 -26.5t23.5 -61.5q0 -29 -15.5 -48.5t-50.5 -37.5l-202 -109q-18 -10 -40 -18t-49 -8q-29 0 -47 16t-18 45zM170 70v1282q0 47 23.5 65.5t66.5 18.5t66.5 -18.5t23.5 -65.5v-1282q0 -47 -23.5 -65.5 t-66.5 -18.5t-66.5 18.5t-23.5 65.5z" />
<glyph unicode="&#xce;" horiz-adv-x="520" d="M-41 1587q0 16 4 29.5t19 28.5l162 139q39 33 66.5 49t62.5 16q31 0 57.5 -14t62.5 -49l156 -141q16 -14 19.5 -28.5t3.5 -27.5q0 -29 -20.5 -47t-49.5 -18t-47.5 11t-38.5 28l-145 129l-152 -127q-23 -16 -43 -28.5t-49 -12.5t-48.5 17.5t-19.5 45.5zM170 70v1282 q0 47 23.5 65.5t66.5 18.5t66.5 -18.5t23.5 -65.5v-1282q0 -47 -23.5 -65.5t-66.5 -18.5t-66.5 18.5t-23.5 65.5z" />
<glyph unicode="&#xcf;" horiz-adv-x="520" d="M-45 1651q0 45 28.5 72.5t75.5 27.5q41 0 75 -24.5t34 -75.5q0 -47 -30.5 -74t-78.5 -27q-47 0 -75.5 27t-28.5 74zM170 70v1282q0 47 23.5 65.5t66.5 18.5t66.5 -18.5t23.5 -65.5v-1282q0 -47 -23.5 -65.5t-66.5 -18.5t-66.5 18.5t-23.5 65.5zM363 1651q0 45 29.5 72.5 t76.5 27.5q41 0 74 -24.5t33 -75.5q0 -47 -30 -74t-77 -27t-76.5 27t-29.5 74z" />
<glyph unicode="&#xd0;" horiz-adv-x="1464" d="M0 709q0 41 15.5 59t56.5 18h100v547q0 47 25.5 67.5t70.5 20.5h381q160 0 291 -43t225.5 -130t145.5 -221t51 -318q0 -182 -51 -315.5t-145.5 -220.5t-225.5 -130t-291 -43h-381q-45 0 -70.5 20.5t-25.5 67.5v547h-102q-35 0 -52.5 15.5t-17.5 58.5zM354 158h283 q119 0 217 33.5t168 101t107.5 171.5t37.5 245t-38.5 245.5t-108.5 173t-168 102.5t-215 34h-283v-478h385q41 0 56.5 -18t15.5 -59q0 -43 -18.5 -58.5t-59.5 -15.5h-379v-477z" />
<glyph unicode="&#xd1;" horiz-adv-x="1472" d="M170 66v1282q0 49 27.5 68.5t78.5 19.5q49 0 75 -21.5t48 -56.5l727 -1084v1082q0 45 24 62.5t64 17.5q41 0 65 -17.5t24 -62.5v-1282q0 -49 -28 -68.5t-79 -19.5q-49 0 -74.5 21.5t-48.5 55.5l-727 1080v-1077q0 -45 -23.5 -62.5t-64.5 -17.5t-64.5 17t-23.5 63z M418 1612q0 29 13 53.5t30 46.5q33 39 75 63.5t87 24.5q37 0 67.5 -9t65.5 -24l76 -28q23 -10 51 -18.5t51 -8.5q41 0 57.5 13.5t32.5 41.5q8 14 19.5 24.5t27.5 10.5t38 -12t22 -35q0 -12 -5 -33q-16 -72 -71 -119t-123 -47q-37 0 -66.5 7.5t-60.5 19.5l-78 31 q-31 12 -56.5 20t-47.5 8q-37 0 -56.5 -14t-42.5 -41q-8 -10 -19 -19t-28 -9q-23 0 -41 13t-18 40z" />
<glyph unicode="&#xd2;" horiz-adv-x="1564" d="M104 711q0 172 49.5 310t138.5 235.5t214 148.5t276 51q152 0 277 -51t214 -148.5t138 -235.5t49 -310t-49 -310.5t-138 -235.5t-214 -148.5t-277 -51.5t-276.5 51.5t-213.5 148.5t-138.5 235.5t-49.5 310.5zM299 711q0 -133 30.5 -241t92 -183.5t152 -117.5t208.5 -42 q119 0 209 42t151.5 117.5t92.5 183.5t31 241q0 131 -31 239.5t-92.5 184t-151.5 117.5t-209 42t-209 -42t-151.5 -117.5t-92 -184t-30.5 -239.5zM572 1745q0 35 25.5 65.5t66.5 30.5q29 0 56.5 -16.5t60.5 -40.5l174 -127q23 -16 33 -29.5t10 -36.5q0 -29 -19.5 -48 t-48.5 -19q-27 0 -49.5 8t-40.5 18l-203 109q-35 18 -50 37.5t-15 48.5z" />
<glyph unicode="&#xd3;" horiz-adv-x="1564" d="M104 711q0 172 49.5 310t138.5 235.5t214 148.5t276 51q152 0 277 -51t214 -148.5t138 -235.5t49 -310t-49 -310.5t-138 -235.5t-214 -148.5t-277 -51.5t-276.5 51.5t-213.5 148.5t-138.5 235.5t-49.5 310.5zM299 711q0 -133 30.5 -241t92 -183.5t152 -117.5t208.5 -42 q119 0 209 42t151.5 117.5t92.5 183.5t31 241q0 131 -31 239.5t-92.5 184t-151.5 117.5t-209 42t-209 -42t-151.5 -117.5t-92 -184t-30.5 -239.5zM569 1585q0 23 8 36t31 30l174 127q33 25 62.5 40t58.5 15q41 0 64.5 -26.5t23.5 -61.5q0 -29 -15.5 -48.5t-50.5 -37.5 l-202 -109q-18 -10 -40 -18t-49 -8q-29 0 -47 16t-18 45z" />
<glyph unicode="&#xd4;" horiz-adv-x="1564" d="M104 711q0 172 49.5 310t138.5 235.5t214 148.5t276 51q152 0 277 -51t214 -148.5t138 -235.5t49 -310t-49 -310.5t-138 -235.5t-214 -148.5t-277 -51.5t-276.5 51.5t-213.5 148.5t-138.5 235.5t-49.5 310.5zM299 711q0 -133 30.5 -241t92 -183.5t152 -117.5t208.5 -42 q119 0 209 42t151.5 117.5t92.5 183.5t31 241q0 131 -31 239.5t-92.5 184t-151.5 117.5t-209 42t-209 -42t-151.5 -117.5t-92 -184t-30.5 -239.5zM475 1587q0 16 4 29.5t19 28.5l162 139q39 33 66.5 49t62.5 16q31 0 57.5 -14t62.5 -49l156 -141q16 -14 19.5 -28.5 t3.5 -27.5q0 -29 -20.5 -47t-49.5 -18t-47.5 11t-38.5 28l-145 129l-152 -127q-23 -16 -43 -28.5t-49 -12.5t-48.5 17.5t-19.5 45.5z" />
<glyph unicode="&#xd5;" horiz-adv-x="1564" d="M104 711q0 172 49.5 310t138.5 235.5t214 148.5t276 51q152 0 277 -51t214 -148.5t138 -235.5t49 -310t-49 -310.5t-138 -235.5t-214 -148.5t-277 -51.5t-276.5 51.5t-213.5 148.5t-138.5 235.5t-49.5 310.5zM299 711q0 -133 30.5 -241t92 -183.5t152 -117.5t208.5 -42 q119 0 209 42t151.5 117.5t92.5 183.5t31 241q0 131 -31 239.5t-92.5 184t-151.5 117.5t-209 42t-209 -42t-151.5 -117.5t-92 -184t-30.5 -239.5zM426 1612q0 29 13 53.5t30 46.5q33 39 75 63.5t87 24.5q37 0 67.5 -9t65.5 -24l76 -28q23 -10 51 -18.5t51 -8.5 q41 0 57.5 13.5t32.5 41.5q8 14 19.5 24.5t27.5 10.5t38 -12t22 -35q0 -12 -5 -33q-16 -72 -71 -119t-123 -47q-37 0 -66.5 7.5t-60.5 19.5l-78 31q-31 12 -56.5 20t-47.5 8q-37 0 -56.5 -14t-42.5 -41q-8 -10 -19 -19t-28 -9q-23 0 -41 13t-18 40z" />
<glyph unicode="&#xd6;" horiz-adv-x="1564" d="M104 711q0 172 49.5 310t138.5 235.5t214 148.5t276 51q152 0 277 -51t214 -148.5t138 -235.5t49 -310t-49 -310.5t-138 -235.5t-214 -148.5t-277 -51.5t-276.5 51.5t-213.5 148.5t-138.5 235.5t-49.5 310.5zM299 711q0 -133 30.5 -241t92 -183.5t152 -117.5t208.5 -42 q119 0 209 42t151.5 117.5t92.5 183.5t31 241q0 131 -31 239.5t-92.5 184t-151.5 117.5t-209 42t-209 -42t-151.5 -117.5t-92 -184t-30.5 -239.5zM471 1651q0 45 28.5 72.5t75.5 27.5q41 0 75 -24.5t34 -75.5q0 -47 -30.5 -74t-78.5 -27q-47 0 -75.5 27t-28.5 74zM879 1651 q0 45 29.5 72.5t76.5 27.5q41 0 74 -24.5t33 -75.5q0 -47 -30 -74t-77 -27t-76.5 27t-29.5 74z" />
<glyph unicode="&#xd7;" d="M250 412q0 27 29 55l231 231l-225 220q-25 25 -25 51q0 31 29 59q27 27 59 27q29 0 53 -25l226 -221l227 233q29 29 55 29q27 0 58 -31q16 -16 21 -28.5t5 -26.5q0 -27 -28 -55l-230 -234l230 -223q23 -23 22 -47q0 -29 -29 -61q-29 -29 -59 -29q-27 0 -51 24l-227 226 l-232 -232q-29 -29 -55 -28q-25 0 -53 28q-31 31 -31 58z" />
<glyph unicode="&#xd8;" horiz-adv-x="1564" d="M104 709q0 172 49.5 311t138.5 235.5t214 148.5t276 52q193 0 342 -84l70 105q29 41 63 41q29 0 61 -25t32 -57q0 -25 -21 -52l-76 -110q98 -98 152.5 -240.5t54.5 -324.5q0 -172 -49 -310.5t-138 -235.5t-214 -148.5t-277 -51.5q-199 0 -352 88l-98 -143 q-29 -41 -64 -41q-29 0 -59.5 23.5t-30.5 56.5q0 27 21 55l102 152q-94 98 -145.5 236t-51.5 319zM299 709q0 -248 107 -402l622 926q-51 29 -112.5 45t-133.5 16q-119 0 -209 -42t-151.5 -118.5t-92 -185t-30.5 -239.5zM524 193q104 -68 258 -68q119 0 209 42t151.5 117.5 t92.5 183.5t31 241q0 127 -29 231t-86 182z" />
<glyph unicode="&#xd9;" horiz-adv-x="1456" d="M160 518v834q0 47 24.5 65.5t67.5 18.5t66.5 -18.5t23.5 -65.5v-820q0 -205 102.5 -306t282.5 -101q184 0 285.5 101.5t101.5 305.5v820q0 47 23.5 65.5t66.5 18.5t67.5 -18.5t24.5 -65.5v-834q0 -123 -36.5 -224t-108.5 -174t-178.5 -114t-245.5 -41t-244.5 41 t-177.5 114t-108.5 174t-36.5 224zM516 1745q0 35 25.5 65.5t66.5 30.5q29 0 56.5 -16.5t60.5 -40.5l174 -127q23 -16 33 -29.5t10 -36.5q0 -29 -19.5 -48t-48.5 -19q-27 0 -49.5 8t-40.5 18l-203 109q-35 18 -50 37.5t-15 48.5z" />
<glyph unicode="&#xda;" horiz-adv-x="1456" d="M160 518v834q0 47 24.5 65.5t67.5 18.5t66.5 -18.5t23.5 -65.5v-820q0 -205 102.5 -306t282.5 -101q184 0 285.5 101.5t101.5 305.5v820q0 47 23.5 65.5t66.5 18.5t67.5 -18.5t24.5 -65.5v-834q0 -123 -36.5 -224t-108.5 -174t-178.5 -114t-245.5 -41t-244.5 41 t-177.5 114t-108.5 174t-36.5 224zM543 1585q0 23 8 36t31 30l174 127q33 25 62.5 40t58.5 15q41 0 64.5 -26.5t23.5 -61.5q0 -29 -15.5 -48.5t-50.5 -37.5l-202 -109q-18 -10 -40 -18t-49 -8q-29 0 -47 16t-18 45z" />
<glyph unicode="&#xdb;" horiz-adv-x="1456" d="M160 518v834q0 47 24.5 65.5t67.5 18.5t66.5 -18.5t23.5 -65.5v-820q0 -205 102.5 -306t282.5 -101q184 0 285.5 101.5t101.5 305.5v820q0 47 23.5 65.5t66.5 18.5t67.5 -18.5t24.5 -65.5v-834q0 -123 -36.5 -224t-108.5 -174t-178.5 -114t-245.5 -41t-244.5 41 t-177.5 114t-108.5 174t-36.5 224zM442 1587q0 16 4 29.5t19 28.5l162 139q39 33 66.5 49t62.5 16q31 0 57.5 -14t62.5 -49l156 -141q16 -14 19.5 -28.5t3.5 -27.5q0 -29 -20.5 -47t-49.5 -18t-47.5 11t-38.5 28l-145 129l-152 -127q-23 -16 -43 -28.5t-49 -12.5t-48.5 17.5 t-19.5 45.5z" />
<glyph unicode="&#xdc;" horiz-adv-x="1456" d="M160 518v834q0 47 24.5 65.5t67.5 18.5t66.5 -18.5t23.5 -65.5v-820q0 -205 102.5 -306t282.5 -101q184 0 285.5 101.5t101.5 305.5v820q0 47 23.5 65.5t66.5 18.5t67.5 -18.5t24.5 -65.5v-834q0 -123 -36.5 -224t-108.5 -174t-178.5 -114t-245.5 -41t-244.5 41 t-177.5 114t-108.5 174t-36.5 224zM434 1651q0 45 28.5 72.5t75.5 27.5q41 0 75 -24.5t34 -75.5q0 -47 -30.5 -74t-78.5 -27q-47 0 -75.5 27t-28.5 74zM842 1651q0 45 29.5 72.5t76.5 27.5q41 0 74 -24.5t33 -75.5q0 -47 -30 -74t-77 -27t-76.5 27t-29.5 74z" />
<glyph unicode="&#xdd;" horiz-adv-x="1239" d="M35 1356q0 35 31.5 57.5t62.5 22.5q43 0 68 -37l428 -598l422 592q29 43 69 43q29 0 58.5 -20.5t29.5 -55.5q0 -16 -8 -32.5t-18 -33.5l-465 -643v-581q0 -47 -23.5 -65.5t-66.5 -18.5t-68 18.5t-25 65.5v583q-111 150 -234.5 318t-234.5 319q-10 16 -18 32.5t-8 33.5z M463 1585q0 23 8 36t31 30l174 127q33 25 62.5 40t58.5 15q41 0 64.5 -26.5t23.5 -61.5q0 -29 -15.5 -48.5t-50.5 -37.5l-202 -109q-18 -10 -40 -18t-49 -8q-29 0 -47 16t-18 45z" />
<glyph unicode="&#xde;" horiz-adv-x="1267" d="M170 66v1286q0 47 23.5 65.5t66.5 18.5t66.5 -18.5t23.5 -65.5v-176h281q281 0 412 -111t131 -317q0 -57 -19.5 -131t-77 -139.5t-159 -110.5t-265.5 -45h-305v-256q0 -47 -23.5 -65.5t-66.5 -18.5t-65.5 18t-22.5 66zM348 475h258q109 0 182.5 19.5t117.5 55.5t63.5 86 t19.5 112q0 59 -18.5 109t-61.5 87t-112.5 57.5t-171.5 20.5h-277v-547z" />
<glyph unicode="&#xdf;" horiz-adv-x="1222" d="M156 66v946q0 92 26.5 173t80.5 140t137 94t198 35q98 0 175 -26.5t128 -73.5t78 -111.5t27 -138.5t-22.5 -130t-55.5 -94t-73 -61.5t-71 -32.5q49 -2 107.5 -22.5t108 -65.5t81 -116.5t31.5 -171.5q0 -121 -31.5 -204t-86 -136.5t-127 -77t-156.5 -23.5q-66 0 -113 9.5 t-80 21.5t-51 24.5t-25 18.5q-16 16 -20 29.5t-4 29.5q0 35 23.5 60.5t58.5 25.5q20 0 39.5 -11t42 -25.5t52.5 -25.5t73 -11q39 0 79.5 11t73.5 41t53.5 84t20.5 140q0 88 -28.5 147.5t-76 94.5t-109 50t-126.5 15h-43q-35 0 -49.5 25t-14.5 53q0 29 15.5 54.5t44.5 25.5 h57q39 0 80 10.5t72.5 37t52 71.5t20.5 115q0 61 -21.5 102t-56 66.5t-77.5 36t-86 10.5q-143 0 -200.5 -89.5t-57.5 -234.5v-915q0 -47 -23.5 -64.5t-64.5 -17.5t-63.5 17t-22.5 65z" />
<glyph unicode="&#xe0;" horiz-adv-x="1144" d="M104 268q0 80 29 147.5t98.5 116t185 76t292.5 31.5l106 2v41q0 117 -60.5 174t-195.5 57q-53 0 -92 -12t-66.5 -28.5t-45 -35t-29.5 -32.5q-20 -25 -35 -33t-37 -8q-33 0 -60.5 19.5t-27.5 50.5q0 16 3 26t9 23q2 6 24.5 34.5t68.5 61.5t119 58.5t177 25.5 q117 0 198 -29.5t130 -79t71.5 -114t22.5 -133.5v-654q0 -68 -88 -67q-59 0 -72.5 26.5t-13.5 73.5v61q-20 -29 -49 -59.5t-71 -56t-100 -42t-134 -16.5q-92 0 -158.5 22.5t-111 62.5t-66 94.5t-21.5 115.5zM279 285q0 -70 48 -120t158 -50q96 0 175 44t120 109 q35 55 35 150v86l-113 -2q-131 -2 -212.5 -18.5t-129 -44t-64.5 -66.5t-17 -88zM387 1446q0 35 30 65.5t73 30.5q31 0 55.5 -20.5t56.5 -59.5l136 -168q27 -29 26 -61q0 -27 -18.5 -44.5t-46.5 -17.5q-29 0 -49.5 12.5t-40.5 30.5l-175 156q-47 43 -47 76z" />
<glyph unicode="&#xe1;" horiz-adv-x="1144" d="M104 268q0 80 29 147.5t98.5 116t185 76t292.5 31.5l106 2v41q0 117 -60.5 174t-195.5 57q-53 0 -92 -12t-66.5 -28.5t-45 -35t-29.5 -32.5q-20 -25 -35 -33t-37 -8q-33 0 -60.5 19.5t-27.5 50.5q0 16 3 26t9 23q2 6 24.5 34.5t68.5 61.5t119 58.5t177 25.5 q117 0 198 -29.5t130 -79t71.5 -114t22.5 -133.5v-654q0 -68 -88 -67q-59 0 -72.5 26.5t-13.5 73.5v61q-20 -29 -49 -59.5t-71 -56t-100 -42t-134 -16.5q-92 0 -158.5 22.5t-111 62.5t-66 94.5t-21.5 115.5zM279 285q0 -70 48 -120t158 -50q96 0 175 44t120 109 q35 55 35 150v86l-113 -2q-131 -2 -212.5 -18.5t-129 -44t-64.5 -66.5t-17 -88zM450 1231q0 33 27 61l135 164q33 39 59.5 58.5t57.5 19.5q47 0 71.5 -26.5t24.5 -61.5q0 -33 -47 -76l-174 -156q-20 -18 -41 -30.5t-49 -12.5q-29 0 -46.5 16.5t-17.5 43.5z" />
<glyph unicode="&#xe2;" horiz-adv-x="1144" d="M104 268q0 80 29 147.5t98.5 116t185 76t292.5 31.5l106 2v41q0 117 -60.5 174t-195.5 57q-53 0 -92 -12t-66.5 -28.5t-45 -35t-29.5 -32.5q-20 -25 -35 -33t-37 -8q-33 0 -60.5 19.5t-27.5 50.5q0 16 3 26t9 23q2 6 24.5 34.5t68.5 61.5t119 58.5t177 25.5 q117 0 198 -29.5t130 -79t71.5 -114t22.5 -133.5v-654q0 -68 -88 -67q-59 0 -72.5 26.5t-13.5 73.5v61q-20 -29 -49 -59.5t-71 -56t-100 -42t-134 -16.5q-92 0 -158.5 22.5t-111 62.5t-66 94.5t-21.5 115.5zM279 285q0 -70 48 -120t158 -50q96 0 175 44t120 109 q35 55 35 150v86l-113 -2q-131 -2 -212.5 -18.5t-129 -44t-64.5 -66.5t-17 -88zM284 1235q0 35 27 61l151 162q35 37 66 53.5t61 16.5q35 0 67 -16.5t67 -53.5l149 -162q14 -16 19.5 -32.5t5.5 -28.5q0 -29 -20.5 -46.5t-49.5 -17.5q-27 0 -46.5 11.5t-35.5 31.5l-154 160 l-151 -160q-20 -20 -39.5 -31.5t-48.5 -11.5t-48.5 17.5t-19.5 46.5z" />
<glyph unicode="&#xe3;" horiz-adv-x="1144" d="M104 268q0 80 29 147.5t98.5 116t185 76t292.5 31.5l106 2v41q0 117 -60.5 174t-195.5 57q-53 0 -92 -12t-66.5 -28.5t-45 -35t-29.5 -32.5q-20 -25 -35 -33t-37 -8q-33 0 -60.5 19.5t-27.5 50.5q0 16 3 26t9 23q2 6 24.5 34.5t68.5 61.5t119 58.5t177 25.5 q117 0 198 -29.5t130 -79t71.5 -114t22.5 -133.5v-654q0 -68 -88 -67q-59 0 -72.5 26.5t-13.5 73.5v61q-20 -29 -49 -59.5t-71 -56t-100 -42t-134 -16.5q-92 0 -158.5 22.5t-111 62.5t-66 94.5t-21.5 115.5zM215 1276q0 29 13 53.5t30 46.5q33 39 75 63.5t87 24.5 q37 0 67.5 -9t65.5 -23l76 -29q23 -10 51 -18.5t51 -8.5q41 0 57.5 13.5t32.5 42.5q8 14 19.5 24t27.5 10t38 -12t22 -35q0 -12 -5 -33q-16 -72 -71 -118.5t-123 -46.5q-37 0 -66.5 7t-60.5 19l-78 31q-31 12 -56.5 20.5t-47.5 8.5q-37 0 -56.5 -14.5t-42.5 -41.5 q-8 -10 -19 -19t-28 -9q-23 0 -41 13t-18 40zM279 285q0 -70 48 -120t158 -50q96 0 175 44t120 109q35 55 35 150v86l-113 -2q-131 -2 -212.5 -18.5t-129 -44t-64.5 -66.5t-17 -88z" />
<glyph unicode="&#xe4;" horiz-adv-x="1144" d="M104 268q0 80 29 147.5t98.5 116t185 76t292.5 31.5l106 2v41q0 117 -60.5 174t-195.5 57q-53 0 -92 -12t-66.5 -28.5t-45 -35t-29.5 -32.5q-20 -25 -35 -33t-37 -8q-33 0 -60.5 19.5t-27.5 50.5q0 16 3 26t9 23q2 6 24.5 34.5t68.5 61.5t119 58.5t177 25.5 q117 0 198 -29.5t130 -79t71.5 -114t22.5 -133.5v-654q0 -68 -88 -67q-59 0 -72.5 26.5t-13.5 73.5v61q-20 -29 -49 -59.5t-71 -56t-100 -42t-134 -16.5q-92 0 -158.5 22.5t-111 62.5t-66 94.5t-21.5 115.5zM244 1341q0 47 30.5 77t79.5 30q41 0 78 -26.5t37 -80.5 q0 -49 -32 -77.5t-83 -28.5t-80.5 28.5t-29.5 77.5zM279 285q0 -70 48 -120t158 -50q96 0 175 44t120 109q35 55 35 150v86l-113 -2q-131 -2 -212.5 -18.5t-129 -44t-64.5 -66.5t-17 -88zM676 1341q0 47 31.5 77t80.5 30q43 0 78 -26.5t35 -80.5q0 -49 -30.5 -77.5 t-82.5 -28.5q-51 0 -81.5 28.5t-30.5 77.5z" />
<glyph unicode="&#xe5;" horiz-adv-x="1144" d="M104 268q0 80 29 147.5t98.5 116t185 76t292.5 31.5l106 2v41q0 117 -60.5 174t-195.5 57q-53 0 -92 -12t-66.5 -28.5t-45 -35t-29.5 -32.5q-20 -25 -35 -33t-37 -8q-33 0 -60.5 19.5t-27.5 50.5q0 16 3 26t9 23q2 6 24.5 34.5t68.5 61.5t119 58.5t177 25.5 q117 0 198 -29.5t130 -79t71.5 -114t22.5 -133.5v-654q0 -68 -88 -67q-59 0 -72.5 26.5t-13.5 73.5v61q-20 -29 -49 -59.5t-71 -56t-100 -42t-134 -16.5q-92 0 -158.5 22.5t-111 62.5t-66 94.5t-21.5 115.5zM279 285q0 -70 48 -120t158 -50q96 0 175 44t120 109 q35 55 35 150v86l-113 -2q-131 -2 -212.5 -18.5t-129 -44t-64.5 -66.5t-17 -88zM354 1391q0 45 17.5 85t47 69.5t70.5 47t88 17.5t88 -17.5t71 -47t47 -69.5t17 -85t-17 -85t-47 -70t-71 -47.5t-88 -17.5t-88 17.5t-70.5 47.5t-47 70t-17.5 85zM463 1391q0 -47 33.5 -83 t80.5 -36t81 36t34 83t-34 82.5t-81 35.5t-80.5 -35.5t-33.5 -82.5z" />
<glyph unicode="&#xe6;" horiz-adv-x="1859" d="M104 279q0 76 28 140t97.5 110t185 72t294.5 26h106v49q0 117 -60.5 178t-195.5 61q-53 0 -92 -12t-66.5 -28.5t-45 -35t-29.5 -32.5q-20 -25 -35 -33t-37 -8q-33 0 -60.5 19.5t-27.5 50.5q0 16 3 26t9 23q2 6 24.5 34.5t68.5 61.5t119 58.5t177 25.5q147 0 232.5 -47 t132.5 -135q57 80 150.5 131t211.5 51q115 0 203 -39t147.5 -106.5t90 -161.5t30.5 -205q0 -72 -84 -72h-696q4 -180 85 -269t233 -89q59 0 103 15.5t74.5 37t50 44t32.5 38.5q14 20 27.5 30.5t39.5 10.5q29 0 56.5 -18.5t27.5 -49.5q0 -27 -22 -63q-18 -29 -48 -62.5 t-76 -64.5t-111.5 -51.5t-153.5 -20.5q-141 0 -248 57.5t-160 161.5q-18 -29 -49 -66.5t-81 -71.5t-121 -57.5t-169 -23.5q-100 0 -171 23.5t-115 64.5t-64.5 98.5t-20.5 123.5zM279 289q0 -78 48 -128t158 -50q96 0 175 44t120 109q18 29 26.5 69t8.5 85v74h-113 q-131 0 -212.5 -14.5t-129 -41t-64.5 -64.5t-17 -83zM993 623h596q-6 61 -25.5 114.5t-55 93t-89 62t-125.5 22.5t-125 -24.5t-90 -64.5t-58.5 -93t-27.5 -110z" />
<glyph unicode="&#xe7;" horiz-adv-x="1075" d="M100 516q0 121 33 221.5t94.5 173t151.5 112.5t207 40q88 0 154.5 -21.5t114.5 -54.5t78 -71.5t46 -71.5q8 -16 12 -30.5t4 -31.5q0 -37 -26.5 -58.5t-57.5 -21.5q-23 0 -38 9.5t-37 42.5q-12 16 -31 42.5t-47.5 51t-70.5 42t-101 17.5q-154 0 -227.5 -104.5 t-73.5 -284.5q0 -184 73.5 -290.5t227.5 -106.5q55 0 94 13t66.5 33.5t46 44.5t34.5 46q25 35 40.5 47t41.5 12q29 0 56.5 -20.5t27.5 -50.5q0 -29 -14 -56q-10 -23 -38 -60.5t-76 -74.5t-117 -63q-55 -20 -130 -25l-12 -51q111 -10 161 -56t50 -128t-56 -140.5t-183 -58.5 q-70 0 -110 13.5t-62 23.5q-45 25 -46 63q0 25 16.5 47.5t45.5 22.5q18 0 34.5 -7t33 -16.5t37 -16.5t46.5 -7q43 0 70 18.5t27 55.5q0 27 -12.5 43t-32 23t-46 9t-55.5 2q-45 0 -55 16.5t-4 39.5l33 108q-63 10 -119 35q-90 41 -151.5 114t-94.5 174t-33 222z" />
<glyph unicode="&#xe8;" horiz-adv-x="1159" d="M100 514q0 123 35 223.5t99.5 173t155.5 112.5t204 40q115 0 203 -40t147.5 -110.5t90 -166.5t30.5 -207q0 -74 -84 -74h-696q0 -166 83 -256t234 -90q59 0 103.5 15.5t75 37t50 44t31.5 38.5q14 20 27.5 30.5t40.5 10.5q29 0 56.5 -18.5t27.5 -49.5q0 -27 -23 -63 q-18 -29 -48 -62.5t-76 -64.5t-111.5 -51.5t-153.5 -20.5q-115 0 -208 40t-158.5 112.5t-100.5 174t-35 222.5zM293 618h596q-6 57 -25.5 111.5t-55.5 94.5t-89 64.5t-125 24.5t-125 -23.5t-90 -63.5t-58.5 -94t-27.5 -114zM395 1446q0 35 30 65.5t73 30.5q31 0 55.5 -20.5 t56.5 -59.5l136 -168q27 -29 26 -61q0 -27 -18.5 -44.5t-46.5 -17.5q-29 0 -49.5 12.5t-40.5 30.5l-175 156q-47 43 -47 76z" />
<glyph unicode="&#xe9;" horiz-adv-x="1159" d="M100 514q0 123 35 223.5t99.5 173t155.5 112.5t204 40q115 0 203 -40t147.5 -110.5t90 -166.5t30.5 -207q0 -74 -84 -74h-696q0 -166 83 -256t234 -90q59 0 103.5 15.5t75 37t50 44t31.5 38.5q14 20 27.5 30.5t40.5 10.5q29 0 56.5 -18.5t27.5 -49.5q0 -27 -23 -63 q-18 -29 -48 -62.5t-76 -64.5t-111.5 -51.5t-153.5 -20.5q-115 0 -208 40t-158.5 112.5t-100.5 174t-35 222.5zM293 618h596q-6 57 -25.5 111.5t-55.5 94.5t-89 64.5t-125 24.5t-125 -23.5t-90 -63.5t-58.5 -94t-27.5 -114zM473 1231q0 33 27 61l135 164q33 39 59.5 58.5 t57.5 19.5q47 0 71.5 -26.5t24.5 -61.5q0 -33 -47 -76l-174 -156q-20 -18 -41 -30.5t-49 -12.5q-29 0 -46.5 16.5t-17.5 43.5z" />
<glyph unicode="&#xea;" horiz-adv-x="1159" d="M100 514q0 123 35 223.5t99.5 173t155.5 112.5t204 40q115 0 203 -40t147.5 -110.5t90 -166.5t30.5 -207q0 -74 -84 -74h-696q0 -166 83 -256t234 -90q59 0 103.5 15.5t75 37t50 44t31.5 38.5q14 20 27.5 30.5t40.5 10.5q29 0 56.5 -18.5t27.5 -49.5q0 -27 -23 -63 q-18 -29 -48 -62.5t-76 -64.5t-111.5 -51.5t-153.5 -20.5q-115 0 -208 40t-158.5 112.5t-100.5 174t-35 222.5zM288 1235q0 35 27 61l151 162q35 37 66 53.5t61 16.5q35 0 67 -16.5t67 -53.5l149 -162q14 -16 19.5 -32.5t5.5 -28.5q0 -29 -20.5 -46.5t-49.5 -17.5 q-27 0 -46.5 11.5t-35.5 31.5l-154 160l-151 -160q-20 -20 -39.5 -31.5t-48.5 -11.5t-48.5 17.5t-19.5 46.5zM293 618h596q-6 57 -25.5 111.5t-55.5 94.5t-89 64.5t-125 24.5t-125 -23.5t-90 -63.5t-58.5 -94t-27.5 -114z" />
<glyph unicode="&#xeb;" horiz-adv-x="1159" d="M100 514q0 123 35 223.5t99.5 173t155.5 112.5t204 40q115 0 203 -40t147.5 -110.5t90 -166.5t30.5 -207q0 -74 -84 -74h-696q0 -166 83 -256t234 -90q59 0 103.5 15.5t75 37t50 44t31.5 38.5q14 20 27.5 30.5t40.5 10.5q29 0 56.5 -18.5t27.5 -49.5q0 -27 -23 -63 q-18 -29 -48 -62.5t-76 -64.5t-111.5 -51.5t-153.5 -20.5q-115 0 -208 40t-158.5 112.5t-100.5 174t-35 222.5zM267 1341q0 47 30.5 77t79.5 30q41 0 78 -26.5t37 -80.5q0 -49 -32 -77.5t-83 -28.5t-80.5 28.5t-29.5 77.5zM293 618h596q-6 57 -25.5 111.5t-55.5 94.5 t-89 64.5t-125 24.5t-125 -23.5t-90 -63.5t-58.5 -94t-27.5 -114zM699 1341q0 47 31.5 77t80.5 30q43 0 78 -26.5t35 -80.5q0 -49 -30.5 -77.5t-82.5 -28.5q-51 0 -81.5 28.5t-30.5 77.5z" />
<glyph unicode="&#xec;" horiz-adv-x="485" d="M10 1446q0 35 30 65.5t73 30.5q31 0 55.5 -20.5t56.5 -59.5l136 -168q27 -29 26 -61q0 -27 -18.5 -44.5t-46.5 -17.5q-29 0 -49.5 12.5t-40.5 30.5l-175 156q-47 43 -47 76zM156 66v895q0 47 22.5 64t63.5 17t64.5 -17t23.5 -64v-895q0 -47 -23.5 -64.5t-64.5 -17.5 t-63.5 17t-22.5 65z" />
<glyph unicode="&#xed;" horiz-adv-x="485" d="M90 1231q0 33 27 61l135 164q33 39 59.5 58.5t57.5 19.5q47 0 71.5 -26.5t24.5 -61.5q0 -33 -47 -76l-174 -156q-20 -18 -41 -30.5t-49 -12.5q-29 0 -46.5 16.5t-17.5 43.5zM156 66v895q0 47 22.5 64t63.5 17t64.5 -17t23.5 -64v-895q0 -47 -23.5 -64.5t-64.5 -17.5 t-63.5 17t-22.5 65z" />
<glyph unicode="&#xee;" horiz-adv-x="485" d="M-58 1235q0 35 27 61l151 162q35 37 66 53.5t61 16.5q35 0 67 -16.5t67 -53.5l149 -162q14 -16 19.5 -32.5t5.5 -28.5q0 -29 -20.5 -46.5t-49.5 -17.5q-27 0 -46.5 11.5t-35.5 31.5l-154 160l-151 -160q-20 -20 -39.5 -31.5t-48.5 -11.5t-48.5 17.5t-19.5 46.5zM156 66 v895q0 47 22.5 64t63.5 17t64.5 -17t23.5 -64v-895q0 -47 -23.5 -64.5t-64.5 -17.5t-63.5 17t-22.5 65z" />
<glyph unicode="&#xef;" horiz-adv-x="485" d="M-51 1341q0 47 30.5 77t79.5 30q41 0 78 -26.5t37 -80.5q0 -49 -31.5 -77.5t-83.5 -28.5q-51 0 -80.5 28.5t-29.5 77.5zM156 66v895q0 47 22.5 64t63.5 17t64.5 -17t23.5 -64v-895q0 -47 -23.5 -64.5t-64.5 -17.5t-63.5 17t-22.5 65zM311 1341q0 47 32 77t81 30 q43 0 78 -26.5t35 -80.5q0 -49 -31 -77.5t-82 -28.5t-82 28.5t-31 77.5z" />
<glyph unicode="&#xf0;" horiz-adv-x="1200" d="M88 469q0 102 32 192.5t92 158t149.5 107.5t203.5 40q92 0 157.5 -28t106.5 -62q49 -39 80 -89q-14 121 -38.5 211.5t-65.5 151.5l-135 -84q-29 -18 -56 -18q-45 0 -65 38q-14 20 -14 43q0 37 40 64l111 68q-31 16 -64.5 25t-72.5 9q-59 0 -99 -13t-79 -36 q-29 -16 -56.5 -33.5t-56.5 -17.5q-23 0 -36 7t-25 20q-25 25 -25 55q0 35 37 68q53 47 141 77.5t201 30.5q92 0 163.5 -23.5t131.5 -68.5l172 106q29 16 49 17q35 0 57 -39q16 -27 17 -47q0 -37 -43 -64l-146 -90q74 -111 108 -266.5t34 -339.5q0 -156 -30 -281t-91.5 -213 t-157.5 -135t-231 -47q-123 0 -215.5 39t-154.5 106.5t-94 159.5t-32 201zM272 461q0 -76 21.5 -140.5t62.5 -110.5t99.5 -72.5t130.5 -26.5q74 0 132 26.5t97 73.5t59.5 110.5t20.5 139.5q0 78 -24.5 143.5t-67.5 112.5t-102.5 72.5t-129.5 25.5q-68 0 -123 -25.5 t-94 -72.5t-60.5 -111.5t-21.5 -144.5z" />
<glyph unicode="&#xf1;" horiz-adv-x="1191" d="M156 68v897q0 45 20.5 61t61.5 16t62.5 -16t21.5 -61v-97q29 53 77 97q41 37 107.5 67.5t167.5 30.5q162 0 262 -90t100 -277v-639q0 -72 -84 -71q-90 0 -90 71v596q0 121 -50 184.5t-181 63.5q-80 0 -137.5 -36t-93 -93t-53 -128t-17.5 -140v-436q0 -47 -23.5 -64.5 t-64.5 -17.5t-63.5 17t-22.5 65zM275 1276q0 29 13 53.5t30 46.5q33 39 75 63.5t87 24.5q37 0 67.5 -9t65.5 -23l76 -29q23 -10 51 -18.5t51 -8.5q41 0 57.5 13.5t32.5 42.5q8 14 19.5 24t27.5 10t38 -12t22 -35q0 -12 -5 -33q-16 -72 -71 -118.5t-123 -46.5q-37 0 -66.5 7 t-60.5 19l-78 31q-31 12 -56.5 20.5t-47.5 8.5q-37 0 -56.5 -14.5t-42.5 -41.5q-8 -10 -19 -19t-28 -9q-23 0 -41 13t-18 40z" />
<glyph unicode="&#xf2;" horiz-adv-x="1204" d="M100 516q0 129 36 230.5t102.5 172t158.5 107.5t205 37t205 -37t158.5 -107.5t102.5 -172t36 -230.5t-36 -231.5t-102.5 -173t-158.5 -108.5t-205 -38t-205 38t-158.5 108.5t-102.5 173t-36 231.5zM285 516q0 -186 82 -292.5t235 -106.5q154 0 236 106.5t82 292.5 t-82 290.5t-236 104.5t-235.5 -104.5t-81.5 -290.5zM417 1446q0 35 30 65.5t73 30.5q31 0 55.5 -20.5t56.5 -59.5l136 -168q27 -29 26 -61q0 -27 -18.5 -44.5t-46.5 -17.5q-29 0 -49.5 12.5t-40.5 30.5l-175 156q-47 43 -47 76z" />
<glyph unicode="&#xf3;" horiz-adv-x="1204" d="M100 516q0 129 36 230.5t102.5 172t158.5 107.5t205 37t205 -37t158.5 -107.5t102.5 -172t36 -230.5t-36 -231.5t-102.5 -173t-158.5 -108.5t-205 -38t-205 38t-158.5 108.5t-102.5 173t-36 231.5zM285 516q0 -186 82 -292.5t235 -106.5q154 0 236 106.5t82 292.5 t-82 290.5t-236 104.5t-235.5 -104.5t-81.5 -290.5zM489 1231q0 33 27 61l135 164q33 39 59.5 58.5t57.5 19.5q47 0 71.5 -26.5t24.5 -61.5q0 -33 -47 -76l-174 -156q-20 -18 -41 -30.5t-49 -12.5q-29 0 -46.5 16.5t-17.5 43.5z" />
<glyph unicode="&#xf4;" horiz-adv-x="1204" d="M100 516q0 129 36 230.5t102.5 172t158.5 107.5t205 37t205 -37t158.5 -107.5t102.5 -172t36 -230.5t-36 -231.5t-102.5 -173t-158.5 -108.5t-205 -38t-205 38t-158.5 108.5t-102.5 173t-36 231.5zM285 516q0 -186 82 -292.5t235 -106.5q154 0 236 106.5t82 292.5 t-82 290.5t-236 104.5t-235.5 -104.5t-81.5 -290.5zM297 1235q0 35 27 61l151 162q35 37 66 53.5t61 16.5q35 0 67 -16.5t67 -53.5l149 -162q14 -16 19.5 -32.5t5.5 -28.5q0 -29 -20.5 -46.5t-49.5 -17.5q-27 0 -46.5 11.5t-35.5 31.5l-154 160l-151 -160 q-20 -20 -39.5 -31.5t-48.5 -11.5t-48.5 17.5t-19.5 46.5z" />
<glyph unicode="&#xf5;" horiz-adv-x="1204" d="M100 516q0 129 36 230.5t102.5 172t158.5 107.5t205 37t205 -37t158.5 -107.5t102.5 -172t36 -230.5t-36 -231.5t-102.5 -173t-158.5 -108.5t-205 -38t-205 38t-158.5 108.5t-102.5 173t-36 231.5zM246 1276q0 29 13 53.5t30 46.5q33 39 75 63.5t87 24.5q37 0 67.5 -9 t65.5 -23l76 -29q23 -10 51 -18.5t51 -8.5q41 0 57.5 13.5t32.5 42.5q8 14 19.5 24t27.5 10t38 -12t22 -35q0 -12 -5 -33q-16 -72 -71 -118.5t-123 -46.5q-37 0 -66.5 7t-60.5 19l-78 31q-31 12 -56.5 20.5t-47.5 8.5q-37 0 -56.5 -14.5t-42.5 -41.5q-8 -10 -19 -19t-28 -9 q-23 0 -41 13t-18 40zM285 516q0 -186 82 -292.5t235 -106.5q154 0 236 106.5t82 292.5t-82 290.5t-236 104.5t-235.5 -104.5t-81.5 -290.5z" />
<glyph unicode="&#xf6;" horiz-adv-x="1204" d="M100 516q0 129 36 230.5t102.5 172t158.5 107.5t205 37t205 -37t158.5 -107.5t102.5 -172t36 -230.5t-36 -231.5t-102.5 -173t-158.5 -108.5t-205 -38t-205 38t-158.5 108.5t-102.5 173t-36 231.5zM273 1341q0 47 30.5 77t79.5 30q41 0 78 -26.5t37 -80.5 q0 -49 -32 -77.5t-83 -28.5t-80.5 28.5t-29.5 77.5zM285 516q0 -186 82 -292.5t235 -106.5q154 0 236 106.5t82 292.5t-82 290.5t-236 104.5t-235.5 -104.5t-81.5 -290.5zM705 1341q0 47 31.5 77t80.5 30q43 0 78 -26.5t35 -80.5q0 -49 -30.5 -77.5t-82.5 -28.5 q-51 0 -81.5 28.5t-30.5 77.5z" />
<glyph unicode="&#xf7;" d="M160 696q0 37 16.5 57.5t56.5 20.5h783q41 0 57.5 -20.5t16.5 -57.5t-16.5 -58.5t-57.5 -21.5h-783q-41 0 -57 21.5t-16 58.5zM500 305q0 51 36.5 88t90.5 37q51 0 88 -37t37 -88q0 -53 -37 -90t-88 -37q-53 0 -90 37t-37 90zM500 1081q0 51 36.5 88t90.5 37 q51 0 88 -36.5t37 -88.5q0 -53 -37 -90t-88 -37q-53 0 -90 37t-37 90z" />
<glyph unicode="&#xf8;" horiz-adv-x="1204" d="M98 -102q0 27 21 55l112 162q-63 70 -97 170t-34 227q0 129 36 231.5t102.5 174t158.5 109.5t205 38q139 0 250 -57l106 149q29 41 64 41q29 0 60.5 -24.5t31.5 -57.5q0 -25 -20 -51l-113 -162q59 -70 91 -169t32 -222q0 -129 -36 -230.5t-102.5 -172t-158.5 -107.5 t-205 -37q-131 0 -240 51l-110 -157q-29 -41 -64 -41q-29 0 -59.5 23.5t-30.5 56.5zM285 512q0 -152 53 -248l422 610q-72 39 -158 39q-154 0 -235.5 -107.5t-81.5 -293.5zM457 147q61 -31 145 -30q154 0 236 104.5t82 290.5q0 137 -48 231z" />
<glyph unicode="&#xf9;" horiz-adv-x="1191" d="M156 332v639q0 72 84 71q90 0 90 -71v-596q0 -121 49 -184.5t182 -63.5q80 0 137.5 36t93 93t53 129t17.5 141v435q0 47 23.5 64t64.5 17t63.5 -17t22.5 -64v-898q0 -45 -20.5 -61t-61.5 -16t-62.5 16t-21.5 61v99q-29 -55 -77 -99q-41 -37 -109 -67.5t-166 -30.5 q-80 0 -147.5 22.5t-114.5 67.5t-73.5 114t-26.5 163zM358 1446q0 35 30 65.5t73 30.5q31 0 55.5 -20.5t56.5 -59.5l136 -168q27 -29 26 -61q0 -27 -18.5 -44.5t-46.5 -17.5q-29 0 -49.5 12.5t-40.5 30.5l-175 156q-47 43 -47 76z" />
<glyph unicode="&#xfa;" horiz-adv-x="1191" d="M156 332v639q0 72 84 71q90 0 90 -71v-596q0 -121 49 -184.5t182 -63.5q80 0 137.5 36t93 93t53 129t17.5 141v435q0 47 23.5 64t64.5 17t63.5 -17t22.5 -64v-898q0 -45 -20.5 -61t-61.5 -16t-62.5 16t-21.5 61v99q-29 -55 -77 -99q-41 -37 -109 -67.5t-166 -30.5 q-80 0 -147.5 22.5t-114.5 67.5t-73.5 114t-26.5 163zM481 1231q0 33 27 61l135 164q33 39 59.5 58.5t57.5 19.5q47 0 71.5 -26.5t24.5 -61.5q0 -33 -47 -76l-174 -156q-20 -18 -41 -30.5t-49 -12.5q-29 0 -46.5 16.5t-17.5 43.5z" />
<glyph unicode="&#xfb;" horiz-adv-x="1191" d="M156 332v639q0 72 84 71q90 0 90 -71v-596q0 -121 49 -184.5t182 -63.5q80 0 137.5 36t93 93t53 129t17.5 141v435q0 47 23.5 64t64.5 17t63.5 -17t22.5 -64v-898q0 -45 -20.5 -61t-61.5 -16t-62.5 16t-21.5 61v99q-29 -55 -77 -99q-41 -37 -109 -67.5t-166 -30.5 q-80 0 -147.5 22.5t-114.5 67.5t-73.5 114t-26.5 163zM297 1235q0 35 27 61l151 162q35 37 66 53.5t61 16.5q35 0 67 -16.5t67 -53.5l149 -162q14 -16 19.5 -32.5t5.5 -28.5q0 -29 -20.5 -46.5t-49.5 -17.5q-27 0 -46.5 11.5t-35.5 31.5l-154 160l-151 -160 q-20 -20 -39.5 -31.5t-48.5 -11.5t-48.5 17.5t-19.5 46.5z" />
<glyph unicode="&#xfc;" horiz-adv-x="1191" d="M156 332v639q0 72 84 71q90 0 90 -71v-596q0 -121 49 -184.5t182 -63.5q80 0 137.5 36t93 93t53 129t17.5 141v435q0 47 23.5 64t64.5 17t63.5 -17t22.5 -64v-898q0 -45 -20.5 -61t-61.5 -16t-62.5 16t-21.5 61v99q-29 -55 -77 -99q-41 -37 -109 -67.5t-166 -30.5 q-80 0 -147.5 22.5t-114.5 67.5t-73.5 114t-26.5 163zM267 1341q0 47 30.5 77t79.5 30q41 0 78 -26.5t37 -80.5q0 -49 -32 -77.5t-83 -28.5t-80.5 28.5t-29.5 77.5zM699 1341q0 47 31.5 77t80.5 30q43 0 78 -26.5t35 -80.5q0 -49 -30.5 -77.5t-82.5 -28.5q-51 0 -81.5 28.5 t-30.5 77.5z" />
<glyph unicode="&#xfd;" horiz-adv-x="1040" d="M39 967q0 35 31.5 55t70.5 20q47 0 70 -57l305 -749l322 753q12 29 26.5 41t38.5 12q37 0 67.5 -18t30.5 -53q0 -14 -7 -31.5t-15 -36.5l-559 -1284q-14 -29 -30.5 -43t-49.5 -14q-35 0 -59.5 19.5t-24.5 53.5q0 10 3 24.5t13 35.5l150 336l-359 864q-8 20 -16 37.5 t-8 34.5zM430 1231q0 33 27 61l135 164q33 39 59.5 58.5t57.5 19.5q47 0 71.5 -26.5t24.5 -61.5q0 -33 -47 -76l-174 -156q-20 -18 -41 -30.5t-49 -12.5q-29 0 -46.5 16.5t-17.5 43.5z" />
<glyph unicode="&#xfe;" horiz-adv-x="1218" d="M156 -354v1712q0 45 20.5 61.5t61.5 16.5t62.5 -16.5t21.5 -61.5v-494q43 84 130 141.5t212 57.5q106 0 190 -41t142.5 -114.5t88 -175t29.5 -220.5q0 -121 -29.5 -221.5t-88 -172t-142.5 -111.5t-190 -40q-129 0 -211 48t-123 114v-483q0 -47 -23.5 -64.5t-64.5 -17.5 t-63.5 17.5t-22.5 64.5zM324 504q0 -182 81.5 -283.5t229.5 -101.5q74 0 129 28.5t92 81t55.5 124t18.5 159.5q0 86 -18.5 158.5t-55.5 125t-92 81t-127 28.5q-74 0 -132.5 -31.5t-98 -87t-61 -128t-21.5 -154.5z" />
<glyph unicode="&#xff;" horiz-adv-x="1040" d="M39 967q0 35 31.5 55t70.5 20q47 0 70 -57l305 -749l322 753q12 29 26.5 41t38.5 12q37 0 67.5 -18t30.5 -53q0 -14 -7 -31.5t-15 -36.5l-559 -1284q-14 -29 -30.5 -43t-49.5 -14q-35 0 -59.5 19.5t-24.5 53.5q0 10 3 24.5t13 35.5l150 336l-359 864q-8 20 -16 37.5 t-8 34.5zM199 1341q0 47 30.5 77t79.5 30q41 0 78 -26.5t37 -80.5q0 -49 -32 -77.5t-83 -28.5t-80.5 28.5t-29.5 77.5zM631 1341q0 47 31.5 77t80.5 30q43 0 78 -26.5t35 -80.5q0 -49 -30.5 -77.5t-82.5 -28.5q-51 0 -81.5 28.5t-30.5 77.5z" />
<glyph unicode="&#x152;" horiz-adv-x="2064" d="M104 709q0 172 51.5 311t144.5 235.5t224 148.5t291 52q33 0 73 -3t79 -7t75.5 -11.5t63.5 -13.5h799q41 0 58 -19.5t17 -58.5t-17 -59t-58 -20h-725v-459h686q41 0 58.5 -19.5t17.5 -58.5t-17.5 -59.5t-58.5 -20.5h-686v-489h725q41 0 58 -19.5t17 -58.5t-17 -59.5 t-58 -20.5h-797q-29 -6 -66.5 -13t-79.5 -11.5t-83 -7.5t-76 -3q-172 0 -303 51.5t-218 147.5t-132.5 234.5t-45.5 310.5zM299 709q0 -133 30.5 -241t91 -185.5t151 -119.5t210.5 -42q57 0 110.5 5t106.5 17v1129q-113 23 -202 22q-123 0 -216.5 -42t-156 -118.5t-94 -185 t-31.5 -239.5z" />
<glyph unicode="&#x153;" horiz-adv-x="1966" d="M100 512q0 129 36 231.5t102.5 174t158.5 109.5t205 38q141 0 246.5 -60.5t159.5 -170.5q55 106 156.5 168.5t246.5 62.5q111 0 197 -40t144 -110.5t89 -165t31 -200.5q0 -72 -84 -72h-694q4 -180 83.5 -269t231.5 -89q59 0 103 15.5t75 37t50.5 44t31.5 38.5 q14 20 27.5 30.5t40.5 10.5q29 0 56.5 -18.5t27.5 -49.5q0 -27 -23 -63q-18 -29 -48 -62.5t-76 -64.5t-111.5 -51.5t-153.5 -20.5q-141 0 -246.5 60.5t-158.5 169.5q-53 -106 -158 -168t-258 -62q-109 0 -198 36t-153.5 105.5t-100.5 172t-36 233.5zM285 512 q0 -190 82 -292.5t235 -102.5q154 0 235 104.5t81 290.5t-81 293.5t-235 107.5t-235.5 -107.5t-81.5 -293.5zM1102 618h594q-6 57 -25.5 111.5t-55.5 95.5t-89 65.5t-125 24.5t-125 -24.5t-90 -66.5t-57.5 -95t-26.5 -111z" />
<glyph unicode="&#x178;" horiz-adv-x="1239" d="M35 1356q0 35 31.5 57.5t62.5 22.5q43 0 68 -37l428 -598l422 592q29 43 69 43q29 0 58.5 -20.5t29.5 -55.5q0 -16 -8 -32.5t-18 -33.5l-465 -643v-581q0 -47 -23.5 -65.5t-66.5 -18.5t-68 18.5t-25 65.5v583q-111 150 -234.5 318t-234.5 319q-10 16 -18 32.5t-8 33.5z M311 1651q0 45 28.5 72.5t75.5 27.5q41 0 75 -24.5t34 -75.5q0 -47 -30.5 -74t-78.5 -27q-47 0 -75.5 27t-28.5 74zM719 1651q0 45 29.5 72.5t76.5 27.5q41 0 74 -24.5t33 -75.5q0 -47 -30 -74t-77 -27t-76.5 27t-29.5 74z" />
<glyph unicode="&#x2c6;" horiz-adv-x="958" d="M55 1235q0 35 27 61l151 162q35 37 66 53.5t61 16.5q35 0 67 -16.5t67 -53.5l149 -162q14 -16 19.5 -32.5t5.5 -28.5q0 -29 -20.5 -46.5t-49.5 -17.5q-27 0 -46.5 11.5t-35.5 31.5l-154 160l-151 -160q-20 -20 -39.5 -31.5t-48.5 -11.5t-48.5 17.5t-19.5 46.5z" />
<glyph unicode="&#x2dc;" horiz-adv-x="958" d="M121 1276q0 29 13 53.5t30 46.5q33 39 75 63.5t87 24.5q37 0 67.5 -9t65.5 -23l76 -29q23 -10 51 -18.5t51 -8.5q41 0 57.5 13.5t32.5 42.5q8 14 19.5 24t27.5 10t38 -12t22 -35q0 -12 -5 -33q-16 -72 -71 -118.5t-123 -46.5q-37 0 -66.5 7t-60.5 19l-78 31 q-31 12 -56.5 20.5t-47.5 8.5q-37 0 -56.5 -14.5t-42.5 -41.5q-8 -10 -19 -19t-28 -9q-23 0 -41 13t-18 40z" />
<glyph unicode="&#x2000;" horiz-adv-x="973" />
<glyph unicode="&#x2001;" horiz-adv-x="1946" />
<glyph unicode="&#x2002;" horiz-adv-x="973" />
<glyph unicode="&#x2003;" horiz-adv-x="1946" />
<glyph unicode="&#x2004;" horiz-adv-x="648" />
<glyph unicode="&#x2005;" horiz-adv-x="486" />
<glyph unicode="&#x2006;" horiz-adv-x="324" />
<glyph unicode="&#x2007;" horiz-adv-x="324" />
<glyph unicode="&#x2008;" horiz-adv-x="243" />
<glyph unicode="&#x2009;" horiz-adv-x="389" />
<glyph unicode="&#x200a;" horiz-adv-x="108" />
<glyph unicode="&#x2010;" horiz-adv-x="581" d="M49 528q0 41 17.5 62.5t60.5 21.5h328q43 0 60 -21.5t17 -62.5t-17 -64.5t-60 -23.5h-328q-43 0 -60.5 23.5t-17.5 64.5z" />
<glyph unicode="&#x2011;" horiz-adv-x="581" d="M49 528q0 41 17.5 62.5t60.5 21.5h328q43 0 60 -21.5t17 -62.5t-17 -64.5t-60 -23.5h-328q-43 0 -60.5 23.5t-17.5 64.5z" />
<glyph unicode="&#x2012;" horiz-adv-x="581" d="M49 528q0 41 17.5 62.5t60.5 21.5h328q43 0 60 -21.5t17 -62.5t-17 -64.5t-60 -23.5h-328q-43 0 -60.5 23.5t-17.5 64.5z" />
<glyph unicode="&#x2013;" horiz-adv-x="1024" d="M0 514q0 39 17.5 58.5t58.5 19.5h872q41 0 58.5 -19.5t17.5 -58.5t-17.5 -59.5t-58.5 -20.5h-872q-41 0 -58.5 20.5t-17.5 59.5z" />
<glyph unicode="&#x2014;" horiz-adv-x="2048" d="M0 514q0 39 17.5 58.5t58.5 19.5h1896q41 0 58.5 -19.5t17.5 -58.5t-17.5 -59.5t-58.5 -20.5h-1896q-41 0 -58.5 20.5t-17.5 59.5z" />
<glyph unicode="&#x2018;" horiz-adv-x="425" d="M94 1112q0 61 17.5 113.5t40 92.5t43 65.5t26.5 31.5q14 16 25.5 19.5t19.5 3.5q27 0 46.5 -14.5t19.5 -37.5q0 -10 -3 -21t-20 -32q-23 -29 -45 -63.5t-26 -77.5q45 -4 72.5 -34t27.5 -73q0 -57 -33 -88.5t-86 -31.5t-89 36.5t-36 110.5z" />
<glyph unicode="&#x2019;" horiz-adv-x="425" d="M88 1315q0 57 33 89t86 32t89 -37t36 -111q0 -61 -17.5 -113.5t-40 -92.5t-43 -65.5t-26.5 -31.5q-14 -16 -25.5 -19t-19.5 -3q-27 0 -46.5 14t-19.5 37q0 10 3 21.5t20 31.5q23 29 45 63.5t26 77.5q-45 4 -72.5 34t-27.5 73z" />
<glyph unicode="&#x201a;" horiz-adv-x="419" d="M98 111q0 57 33 88.5t86 31.5t89 -36.5t36 -110.5q0 -61 -17.5 -113.5t-40 -92.5t-43 -65.5t-26.5 -31.5q-14 -16 -25.5 -19.5t-19.5 -3.5q-27 0 -46.5 14.5t-19.5 37.5q0 10 3.5 21t19.5 32q23 29 45.5 63.5t26.5 77.5q-45 4 -73 34t-28 73z" />
<glyph unicode="&#x201c;" horiz-adv-x="796" d="M94 1110q0 61 17.5 113.5t40 92.5t43 65.5t26.5 31.5q14 16 25.5 19.5t19.5 3.5q25 0 45.5 -16.5t20.5 -39.5q0 -16 -13 -37q-16 -25 -40.5 -60.5t-30.5 -78.5q41 -10 67.5 -43t26.5 -76q0 -49 -35 -85.5t-88 -36.5t-89 39.5t-36 107.5zM461 1110q0 61 17.5 113.5 t40 92.5t43 65.5t26.5 31.5q14 16 25.5 19.5t19.5 3.5q25 0 45 -16.5t20 -39.5q0 -16 -12 -37q-16 -25 -40.5 -60.5t-31.5 -78.5q41 -10 68 -43t27 -76q0 -49 -35 -85.5t-88 -36.5t-89 39.5t-36 107.5z" />
<glyph unicode="&#x201d;" horiz-adv-x="796" d="M88 1313q0 49 35 86t88 37t89 -40t36 -108q0 -61 -17.5 -113.5t-40 -92.5t-43 -65.5t-26.5 -31.5q-14 -16 -25.5 -19t-19.5 -3q-25 0 -45.5 16t-20.5 39q0 16 13 37q16 25 40.5 60.5t30.5 78.5q-41 10 -67.5 43t-26.5 76zM455 1313q0 49 34.5 86t88.5 37q53 0 88.5 -40 t35.5 -108q0 -61 -17 -113.5t-39.5 -92.5t-43.5 -65.5t-27 -31.5q-14 -16 -25 -19t-20 -3q-25 0 -45 16t-20 39q0 16 12 37q16 25 41 60.5t31 78.5q-41 10 -67.5 43t-26.5 76z" />
<glyph unicode="&#x201e;" horiz-adv-x="786" d="M98 111q0 57 33 88.5t86 31.5t89 -36.5t36 -110.5q0 -61 -17.5 -113.5t-40 -92.5t-43 -65.5t-26.5 -31.5q-14 -16 -25.5 -19.5t-19.5 -3.5q-27 0 -46.5 14.5t-19.5 37.5q0 10 3.5 21t19.5 32q23 29 45.5 63.5t26.5 77.5q-45 4 -73 34t-28 73zM465 111q0 57 33 88.5 t86 31.5t89 -36.5t36 -110.5q0 -61 -17.5 -113.5t-40 -92.5t-43 -65.5t-26.5 -31.5q-14 -16 -25.5 -19.5t-19.5 -3.5q-27 0 -46.5 14.5t-19.5 37.5q0 10 3.5 21t19.5 32q23 29 45.5 63.5t26.5 77.5q-45 4 -73 34t-28 73z" />
<glyph unicode="&#x2022;" horiz-adv-x="819" d="M164 727q0 51 19.5 96t52 78t77.5 52.5t97 19.5q51 0 96 -19.5t77.5 -52.5t52 -78t19.5 -96t-19.5 -96t-52 -78t-77.5 -52.5t-96 -19.5t-96.5 19.5t-78 52.5t-52 78t-19.5 96z" />
<glyph unicode="&#x2026;" horiz-adv-x="1761" d="M200 106q0 49 37 87t86 38t87 -37.5t38 -87.5q0 -49 -38 -85.5t-87 -36.5t-86 36.5t-37 85.5zM751 106q0 49 37 87t86 38t87 -37.5t38 -87.5q0 -49 -38 -85.5t-87 -36.5t-86 36.5t-37 85.5zM1313 106q0 49 37 87t86 38t87 -37.5t38 -87.5q0 -49 -38 -85.5t-87 -36.5 t-86 36.5t-37 85.5z" />
<glyph unicode="&#x202f;" horiz-adv-x="389" />
<glyph unicode="&#x2039;" horiz-adv-x="649" d="M82 543q0 18 8 32.5t19 24.5l292 332q33 37 66 37q35 0 62.5 -27t27.5 -59q0 -16 -8 -31.5t-31 -40.5l-233 -262l227 -266q20 -23 27.5 -37.5t7.5 -30.5q0 -33 -27.5 -57.5t-60.5 -24.5q-39 0 -72 39l-274 307q-10 12 -20.5 29.5t-10.5 34.5z" />
<glyph unicode="&#x203a;" horiz-adv-x="649" d="M92 883q0 33 27.5 59.5t62.5 26.5q33 0 66 -37l293 -332q10 -10 18 -24.5t8 -32.5q0 -16 -10 -33.5t-20 -30.5l-275 -307q-33 -39 -72 -39q-33 0 -60.5 24.5t-27.5 57.5q0 16 7.5 30.5t27.5 37.5l228 266l-234 262q-23 25 -31 40t-8 32z" />
<glyph unicode="&#x205f;" horiz-adv-x="486" />
<glyph unicode="&#x20ac;" d="M33 537q0 35 14 51t55 16h117q-2 25 -2 49v99q0 23 2 45h-117q-41 0 -55 17t-14 52t14 51.5t55 16.5h131q16 111 62.5 201t115 153.5t156.5 98t189 34.5q102 0 182 -28.5t149 -89.5q43 -39 73 -79t30 -77q0 -35 -24.5 -54.5t-51.5 -19.5q-33 0 -51.5 15.5t-56.5 58.5 q-68 74 -128.5 99.5t-138.5 25.5q-129 0 -212 -91t-113 -247h407q41 0 55.5 -16.5t14.5 -51.5t-14.5 -52t-55.5 -17h-424q-2 -23 -2 -45v-99q0 -25 2 -49h424q41 0 55.5 -16.5t14.5 -50.5q0 -35 -14.5 -52.5t-55.5 -17.5h-405q29 -152 110.5 -246t227.5 -94q82 0 143 25.5 t121 97.5q20 25 33.5 41t23.5 25.5t20.5 13.5t24.5 4q29 0 53.5 -19.5t24.5 -54.5t-31.5 -81t-83.5 -93q-123 -111 -329 -111q-113 0 -200 35t-151.5 99.5t-106.5 154.5t-60 203h-134q-41 0 -55 17.5t-14 52.5z" />
<glyph unicode="&#x2122;" horiz-adv-x="1753" d="M47 1350q0 29 13.5 50t41.5 21h547q29 0 43.5 -21.5t14.5 -49.5q0 -29 -15.5 -48.5t-50.5 -19.5h-192v-604q0 -27 -15.5 -47.5t-62.5 -20.5q-78 0 -78 68v604h-182q-33 0 -48.5 19.5t-15.5 48.5zM791 682v664q0 43 24.5 66.5t85.5 23.5q57 0 94 -18.5t52 -69.5l151 -539 l148 532q12 45 45.5 70t97.5 25q115 0 115 -80v-678q0 -31 -15.5 -50.5t-52.5 -19.5q-45 0 -63.5 18.5t-18.5 53.5v588q-2 -10 -6 -27.5t-9 -38t-10.5 -40t-9.5 -29.5l-114 -402q-10 -39 -37 -54t-68 -15q-88 0 -113 73l-122 406q-4 16 -15 49q-8 31 -12 59v-22q2 -16 2 -37 v-514q0 -27 -16.5 -47.5t-57.5 -20.5t-58 19.5t-17 54.5z" />
<glyph unicode="&#x25fc;" horiz-adv-x="1044" d="M0 0v1044h1044v-1044h-1044z" />
</font>
</defs>
</svg>
